<?xml version="1.0" standalone="no"?>
<!DOCTYPE svg PUBLIC "-//W3C//DTD SVG 1.1//EN" "http://www.w3.org/Graphics/SVG/1.1/DTD/svg11.dtd" >
<svg xmlns="http://www.w3.org/2000/svg" xmlns:xlink="http://www.w3.org/1999/xlink" version="1.1">
<metadata>
Created by FontForge 20181014 at Sat Sep 28 23:47:43 2013
 By convertio
Copyright (C) 2005 Emigre Inc.; Designed by Xavier Dupre
</metadata>
<defs>
<font id="VistaSansMed" horiz-adv-x="500" >
  <font-face 
    font-family="VistaSansMed"
    font-weight="400"
    font-stretch="normal"
    units-per-em="1000"
    panose-1="2 0 6 3 3 0 0 2 0 4"
    ascent="800"
    descent="-200"
    x-height="522"
    cap-height="674"
    bbox="-94 -216 1139 890"
    underline-thickness="20"
    underline-position="-133"
    stemh="109"
    stemv="114"
    unicode-range="U+0020-FB02"
  />
<missing-glyph 
 />
    <glyph glyph-name=".notdef" 
 />
    <glyph glyph-name="Eth" unicode="&#xd0;" horiz-adv-x="678" 
d="M623 351c0 -233 -125 -360 -301 -360c-69 0 -168 5 -230 14v293h-53v103h53v266c57 8 169 14 229 14c165 0 302 -96 302 -330zM489 340c0 179 -81 231 -171 231c-29 0 -71 -2 -101 -5v-165h97c0 -34 -4 -69 -9 -103h-88v-192c26 -3 71 -5 100 -5c114 0 172 72 172 239z
" />
    <glyph glyph-name="eth" unicode="&#xf0;" horiz-adv-x="556" 
d="M506 375c0 -263 -71 -385 -227 -385c-138 0 -227 63 -227 254c0 186 87 271 221 271c34 0 73 -4 106 -17c-4 100 -46 136 -125 141l-39 -87c-25 1 -48 5 -69 13l32 71c-31 -5 -63 -12 -84 -21c0 35 3 79 7 107c36 14 86 20 124 22l32 71c21 0 52 -6 69 -16l-27 -60
c121 -17 207 -99 207 -364zM387 310c0 28 -1 64 -2 88c-28 12 -64 19 -100 19c-68 0 -110 -39 -110 -165c0 -120 25 -161 104 -161c77 0 108 50 108 219z" />
    <glyph glyph-name="Lslash" unicode="&#x141;" horiz-adv-x="503" 
d="M473 111c0 -37 -4 -75 -9 -111h-372v283l-54 -18v105l54 19v285h125v-241l73 26c0 -37 -2 -75 -12 -110l-61 -22v-216h256z" />
    <glyph glyph-name="lslash" unicode="&#x142;" horiz-adv-x="289" 
d="M202 0h-114v306l-41 -13v105l41 14v323c33 5 78 9 114 9v-295l45 15c0 -37 -3 -75 -9 -109l-36 -12v-343z" />
    <glyph glyph-name="Scaron" unicode="&#x160;" horiz-adv-x="532" 
d="M443 812c-25 -42 -42 -72 -67 -104h-171c-26 34 -43 63 -66 103c27 4 68 6 99 6l53 -69l53 69c29 0 69 -2 99 -5zM478 191c0 -130 -96 -201 -238 -201c-56 0 -127 7 -182 31c5 38 16 78 25 108c51 -22 116 -33 171 -33c65 0 96 30 96 84c0 127 -290 107 -290 309
c0 127 104 195 246 195c43 0 97 -4 143 -16c-2 -31 -8 -74 -16 -108c-44 11 -106 18 -149 18c-70 0 -96 -31 -96 -81c0 -114 290 -105 290 -306z" />
    <glyph glyph-name="scaron" unicode="&#x161;" horiz-adv-x="457" 
d="M86 727c31 4 66 7 101 7l67 -101l65 101c32 0 67 -3 99 -6c-27 -55 -56 -105 -89 -153h-153c-35 49 -64 98 -90 152zM410 152c0 -113 -97 -162 -201 -162c-56 0 -118 13 -160 36c8 37 16 68 27 103c41 -22 103 -35 153 -35c45 0 63 20 63 53c0 87 -237 45 -237 218
c0 112 99 167 210 167c34 0 86 -5 126 -16c-1 -31 -8 -69 -16 -103c-36 12 -96 20 -138 20s-63 -18 -63 -55c0 -81 236 -39 236 -226z" />
    <glyph glyph-name="Yacute" unicode="&#xdd;" horiz-adv-x="551" 
d="M536 668c-61 -150 -124 -281 -198 -421v-247h-125v247c-76 140 -139 280 -198 421c37 7 98 11 130 11l114 -257c8 -18 14 -37 19 -55h8c6 18 12 38 20 57l111 255c35 0 82 -4 119 -11zM393 815c-15 -41 -35 -68 -83 -109c-32 0 -74 4 -104 7l58 102h129z" />
    <glyph glyph-name="yacute" unicode="&#xfd;" horiz-adv-x="520" 
d="M499 517l-167 -501c-46 -138 -130 -232 -228 -232c-25 0 -66 3 -97 19c4 37 12 76 21 105c20 -9 57 -13 85 -13c35 0 57 16 75 56l21 47c-60 135 -134 341 -175 519c32 5 80 8 112 8l101 -339c5 -17 12 -43 15 -61h6c4 18 10 44 16 62l104 338c31 0 78 -2 111 -8z
M395 731c-18 -54 -53 -113 -93 -159c-30 0 -65 3 -91 7l61 152h123z" />
    <glyph glyph-name="Thorn" unicode="&#xde;" horiz-adv-x="579" 
d="M526 352c0 -166 -112 -234 -232 -234h-79v-118h-123v674h124v-105c28 2 54 3 84 3c131 0 226 -71 226 -220zM402 353c0 79 -45 120 -109 120c-22 0 -48 -2 -78 -5v-248h66c77 0 121 43 121 133z" />
    <glyph glyph-name="thorn" unicode="&#xfe;" horiz-adv-x="579" 
d="M526 276c0 -193 -86 -286 -229 -286c-30 0 -66 6 -95 15v-211h-114v942c32 4 78 8 114 8v-267h6c42 41 86 55 134 55c114 0 184 -81 184 -256zM404 265c0 137 -37 166 -100 166c-33 0 -73 -8 -102 -27v-295c24 -13 56 -21 85 -21c85 0 117 50 117 177z" />
    <glyph glyph-name="Zcaron" unicode="&#x17d;" horiz-adv-x="565" 
d="M515 110c0 -35 -4 -78 -9 -110h-450l-7 95l313 469h-291c-4 38 -7 74 -7 110h438l8 -95l-313 -469h318zM444 812c-25 -42 -42 -72 -67 -104h-171c-26 34 -43 63 -66 103c27 4 68 6 99 6l53 -69l53 69c29 0 69 -2 99 -5z" />
    <glyph glyph-name="zcaron" unicode="&#x17e;" horiz-adv-x="487" 
d="M439 0h-393l-10 94l260 328h-230c-5 34 -8 69 -8 100h364l11 -94l-260 -328h254c7 -30 11 -70 12 -100zM73 727c31 4 66 7 101 7l67 -101l65 101c32 0 67 -3 99 -6c-27 -55 -56 -105 -89 -153h-153c-35 49 -64 98 -90 152z" />
    <glyph glyph-name="DLE" horiz-adv-x="563" 
d="M510 93l-64 -64l-50 56c-33 -22 -74 -37 -115 -37c-42 0 -81 12 -115 35l-48 -54l-64 64l50 54c-23 36 -37 80 -37 130c0 49 15 95 37 131l-50 54l64 64l48 -52c34 23 74 34 116 34c43 0 83 -11 116 -34l47 53l63 -65l-48 -52c22 -35 37 -79 37 -130
c0 -52 -13 -95 -38 -132zM402 280c0 86 -50 135 -120 135c-65 0 -120 -49 -120 -135c0 -88 47 -137 117 -137s123 49 123 137z" />
    <glyph glyph-name="Euro" unicode="&#x20ac;" 
d="M397 224h-185c12 -93 51 -124 123 -124c42 0 88 8 123 29c8 -34 13 -71 16 -111c-44 -20 -97 -28 -144 -28c-141 0 -219 78 -243 234h-57v73h50c-1 14 -1 27 -1 41c0 13 0 24 1 38h-50v73h58c26 166 117 235 236 235c44 0 105 -7 137 -18c-1 -32 -7 -75 -15 -112
c-34 13 -75 20 -117 20c-62 0 -102 -26 -118 -125h217c0 -18 -4 -46 -10 -73h-212c-2 -13 -2 -25 -2 -39c0 -13 0 -27 1 -40h202c0 -21 -4 -46 -10 -73z" />
    <glyph glyph-name="onehalf" unicode="&#xbd;" horiz-adv-x="864" 
d="M328 369c0 -23 -2 -60 -6 -82h-279v82h118v223l-108 -16c-4 20 -8 52 -8 75l123 23h79v-305h81zM829 82c0 -24 -1 -56 -5 -82h-273l-4 70c128 86 172 134 172 185c0 43 -25 56 -68 56c-29 0 -68 -7 -87 -16c-6 20 -12 62 -12 81c28 12 80 18 114 18
c86 0 148 -42 148 -127c0 -67 -44 -123 -136 -185h151zM608 672l-274 -683c-28 5 -48 11 -74 24l270 671c23 0 57 -5 78 -12z" />
    <glyph glyph-name="onequarter" unicode="&#xbc;" horiz-adv-x="854" 
d="M328 369c0 -23 -2 -60 -6 -82h-279v82h118v223l-108 -16c-4 20 -8 52 -8 75l123 23h79v-305h81zM840 157c0 -20 -3 -58 -7 -79h-44v-78h-81v78h-187v80c45 88 104 175 150 236c20 -1 62 -6 79 -12l-145 -229h105v80h79v-76h51zM608 672l-274 -683c-28 5 -48 11 -74 24
l270 671c23 0 57 -5 78 -12z" />
    <glyph glyph-name="onesuperior" unicode="&#xb9;" horiz-adv-x="352" 
d="M328 369c0 -23 -2 -60 -6 -82h-279v82h118v223l-108 -16c-4 20 -8 52 -8 75l123 23h79v-305h81z" />
    <glyph glyph-name="threequarters" unicode="&#xbe;" horiz-adv-x="854" 
d="M307 399c0 -81 -70 -119 -171 -119c-34 0 -78 6 -106 17c1 27 8 61 14 80c25 -9 57 -16 90 -16c50 0 79 7 79 43c0 37 -27 44 -75 44h-64v76h65c52 0 67 10 67 39c0 28 -24 37 -72 37c-29 0 -57 -4 -81 -12c-5 17 -10 53 -11 79c35 10 74 14 109 14c81 0 147 -27 147 -99
c0 -45 -25 -75 -68 -89v-3c48 -11 77 -41 77 -91zM840 157c0 -20 -3 -58 -7 -79h-44v-78h-81v78h-187v80c45 88 104 175 150 236c20 -1 62 -6 79 -12l-145 -229h105v80h79v-76h51zM608 672l-274 -683c-28 5 -48 11 -74 24l270 671c23 0 57 -5 78 -12z" />
    <glyph glyph-name="threesuperior" unicode="&#xb3;" horiz-adv-x="352" 
d="M307 399c0 -81 -70 -119 -171 -119c-34 0 -78 6 -106 17c1 27 8 61 14 80c25 -9 57 -16 90 -16c50 0 79 7 79 43c0 37 -27 44 -75 44h-64v76h65c52 0 67 10 67 39c0 28 -24 37 -72 37c-29 0 -57 -4 -81 -12c-5 17 -10 53 -11 79c35 10 74 14 109 14c81 0 147 -27 147 -99
c0 -45 -25 -75 -68 -89v-3c48 -11 77 -41 77 -91z" />
    <glyph glyph-name="twosuperior" unicode="&#xb2;" horiz-adv-x="352" 
d="M317 369c0 -24 -1 -56 -5 -82h-273l-4 70c128 86 172 134 172 185c0 43 -25 56 -68 56c-29 0 -68 -7 -87 -16c-6 20 -12 62 -12 81c28 12 80 18 114 18c86 0 148 -42 148 -127c0 -67 -44 -123 -136 -185h151z" />
    <glyph glyph-name="brokenbar" unicode="&#xa6;" horiz-adv-x="258" 
d="M172 401h-86v273h86v-273zM172 0h-86v277h86v-277z" />
    <glyph glyph-name="minus" unicode="&#x2212;" 
d="M426 222h-352v86h352v-86z" />
    <glyph glyph-name="multiply" unicode="&#xd7;" horiz-adv-x="492" 
d="M449 86l-59 -59l-144 147l-144 -147l-59 59l147 146l-146 145l58 58l144 -148l144 148l59 -58l-146 -145z" />
    <glyph glyph-name="space" unicode=" " horiz-adv-x="204" 
 />
    <glyph glyph-name="exclam" unicode="!" horiz-adv-x="249" 
d="M184 674c0 -159 -8 -321 -17 -475c-26 -5 -56 -7 -86 -8c-9 156 -17 322 -17 483h120zM188 55c0 -44 -26 -66 -64 -66c-37 0 -65 22 -65 66s30 66 66 66c37 0 63 -23 63 -66z" />
    <glyph glyph-name="quotedbl" unicode="&#x22;" horiz-adv-x="388" 
d="M168 713l-22 -264c-22 -8 -49 -12 -76 -12l-20 276h118zM338 713l-22 -264c-22 -8 -49 -12 -76 -12l-20 276h118z" />
    <glyph glyph-name="numbersign" unicode="#" 
d="M476 528c0 -35 -6 -73 -15 -107h-84l-28 -168h89c0 -34 -6 -71 -14 -106h-93l-24 -147h-73l24 147h-87l-24 -147h-73l25 147h-75c0 35 7 74 17 106h76l28 168h-83c1 35 6 72 16 107h85l25 146h73l-25 -146h87l25 146h73l-25 -146h80zM277 253l28 168h-87l-29 -168h88z
" />
    <glyph glyph-name="dollar" unicode="$" 
d="M450 227c0 -88 -68 -153 -172 -169l3 -58h-104l3 56c-44 3 -94 11 -129 24c4 30 12 80 22 104c45 -18 125 -27 176 -27c60 0 88 17 88 58c0 106 -290 49 -290 242c0 83 69 144 168 161l-2 56h104l-3 -52c35 -1 73 -5 104 -11c-1 -26 -6 -76 -13 -104
c-40 9 -117 15 -156 15c-68 0 -90 -18 -90 -57c0 -91 291 -41 291 -238z" />
    <glyph glyph-name="percent" horiz-adv-x="813" 
d="M349 494c0 -123 -60 -190 -158 -190c-94 0 -159 56 -159 190c0 130 67 190 159 190c97 0 158 -59 158 -190zM257 494c0 74 -14 116 -66 116c-49 0 -67 -39 -67 -116c0 -81 17 -116 67 -116c51 0 66 39 66 116zM583 671l-271 -682c-27 4 -50 13 -75 24l264 669
c25 0 57 -5 82 -11zM781 180c0 -123 -60 -190 -158 -190c-94 0 -160 56 -160 190c0 130 67 190 160 190c97 0 158 -59 158 -190zM688 180c0 74 -13 116 -65 116c-49 0 -67 -39 -67 -116c0 -81 17 -116 67 -116s65 39 65 116z" />
    <glyph glyph-name="ampersand" unicode="&#x26;" horiz-adv-x="637" 
d="M623 5c-34 -8 -87 -13 -122 -13l-60 74c-71 -56 -130 -76 -192 -76c-137 0 -211 79 -211 192c0 94 36 147 153 209c-31 51 -45 92 -45 125c0 107 71 168 173 168c101 0 158 -52 158 -140c0 -66 -36 -127 -136 -182c9 -12 80 -103 119 -149c36 37 79 84 130 147
c8 -50 12 -97 12 -134c-28 -34 -59 -67 -83 -90zM382 142c-37 44 -135 167 -141 174c-76 -42 -90 -71 -90 -121c0 -75 40 -103 106 -103c35 0 71 7 125 50zM382 542c0 37 -23 58 -64 58c-42 0 -66 -27 -66 -73c0 -27 7 -50 36 -93c81 43 94 70 94 108z" />
    <glyph glyph-name="quotesingle" unicode="'" horiz-adv-x="218" 
d="M168 713l-22 -264c-22 -8 -49 -12 -76 -12l-20 276h118z" />
    <glyph glyph-name="parenleft" unicode="(" horiz-adv-x="290" 
d="M271 -164c-28 -7 -66 -11 -97 -11c-83 132 -123 295 -123 458c0 167 39 316 123 454c28 0 68 -5 97 -11c-62 -113 -104 -282 -104 -437c0 -156 40 -337 104 -453z" />
    <glyph glyph-name="parenright" unicode=")" horiz-adv-x="290" 
d="M240 278c0 -166 -39 -315 -124 -453c-28 0 -68 4 -97 11c62 113 104 281 104 437s-40 336 -104 453c28 7 67 11 97 11c83 -132 124 -296 124 -459z" />
    <glyph glyph-name="asterisk" unicode="*" horiz-adv-x="446" 
d="M425 492l-146 -27l95 -101c-25 -27 -56 -52 -85 -73l-71 130l-68 -121c-32 16 -65 37 -94 58l101 108l-136 27c5 35 15 73 27 108l134 -64l-17 138c35 6 75 9 111 9l-20 -148l127 59c17 -32 31 -69 42 -103z" />
    <glyph glyph-name="plus" unicode="+" horiz-adv-x="494" 
d="M453 231h-164v-186h-84v186h-164v83h164v186h84v-186h164v-83z" />
    <glyph glyph-name="comma" unicode="," horiz-adv-x="251" 
d="M184 59c0 -78 -46 -154 -117 -232l-97 26c84 99 106 141 106 225v35h104c3 -13 4 -41 4 -54z" />
    <glyph glyph-name="hyphen" unicode="-" horiz-adv-x="250" 
d="M219 249h-188v95h188v-95z" />
    <glyph glyph-name="period" unicode="." horiz-adv-x="251" 
d="M190 55c0 -45 -29 -66 -64 -66c-38 0 -65 21 -65 66c0 43 28 66 65 66c35 0 64 -23 64 -66z" />
    <glyph glyph-name="slash" unicode="/" horiz-adv-x="383" 
d="M371 671l-312 -785c-29 6 -59 13 -85 25l307 773c25 0 66 -6 90 -13z" />
    <glyph glyph-name="zero" unicode="0" 
d="M461 273c0 -182 -79 -283 -211 -283c-126 0 -211 80 -211 283c0 195 90 282 211 282c130 0 211 -84 211 -282zM344 273c0 118 -17 180 -94 180c-73 0 -94 -59 -94 -180c0 -125 20 -182 94 -182s94 63 94 182z" />
    <glyph glyph-name="one" unicode="1" 
d="M464 0h-394v109h170v326l-154 -21c-7 28 -12 67 -12 98l170 33h105v-436h124c0 -32 -3 -77 -9 -109z" />
    <glyph glyph-name="two" unicode="2" 
d="M450 109c0 -34 -2 -72 -7 -109h-370l-6 95c177 121 234 194 234 266c0 58 -29 85 -87 85c-39 0 -94 -11 -120 -25c-9 32 -17 71 -20 107c44 17 97 27 148 27c121 0 202 -59 202 -179c0 -95 -62 -177 -190 -267h216z" />
    <glyph glyph-name="three" unicode="3" 
d="M444 65c0 -142 -118 -204 -239 -204c-50 0 -115 10 -157 28c5 42 12 78 20 109c38 -18 92 -27 140 -27c70 0 111 30 111 99c0 71 -44 97 -108 97h-97v108h84c84 0 104 35 104 93c0 52 -38 78 -99 78c-44 0 -86 -8 -123 -23c-8 34 -12 73 -14 109c52 17 105 23 157 23
c108 0 200 -48 200 -170c0 -76 -40 -128 -102 -153v-6c76 -23 123 -77 123 -161z" />
    <glyph glyph-name="four" unicode="4" 
d="M462 133c0 -34 -3 -71 -9 -104h-59v-158h-112v158h-240v105c58 135 147 310 213 421c31 -2 78 -10 104 -20l-207 -407h136v162h106v-157h68z" />
    <glyph glyph-name="five" unicode="5" 
d="M446 78c0 -131 -99 -217 -232 -217c-43 0 -101 9 -144 25c4 37 11 73 20 107c34 -14 85 -21 129 -21c72 0 108 33 108 102s-45 99 -135 99c-37 0 -88 -2 -114 -5c3 122 15 268 30 377h326c0 -32 -4 -74 -9 -110h-224l-13 -156c133 0 258 -46 258 -201z" />
    <glyph glyph-name="six" unicode="6" 
d="M455 226c0 -153 -82 -236 -204 -236c-132 0 -206 78 -206 311c0 262 93 383 253 383c36 0 93 -5 122 -14c-3 -32 -8 -71 -16 -108c-25 7 -71 13 -106 13c-84 0 -134 -49 -140 -196h6c28 37 68 54 118 54c95 0 173 -60 173 -207zM344 223c0 89 -39 117 -92 117
c-62 0 -92 -37 -92 -122c0 -86 30 -128 88 -128c63 0 96 39 96 133z" />
    <glyph glyph-name="seven" unicode="7" 
d="M452 442c-76 -173 -186 -402 -285 -578c-33 3 -79 9 -110 19l276 553h-271c-4 36 -6 74 -6 109h396v-103z" />
    <glyph glyph-name="eight" unicode="8" 
d="M456 184c0 -126 -82 -194 -213 -194c-113 0 -199 50 -199 186c0 69 37 129 110 169c-65 38 -99 89 -99 156c0 117 77 183 196 183c118 0 193 -59 193 -170c0 -62 -40 -119 -102 -154c75 -43 114 -94 114 -176zM331 506c0 55 -30 82 -84 82c-52 0 -81 -31 -81 -80
c0 -53 23 -95 89 -116c50 19 76 68 76 114zM340 189c0 59 -34 99 -101 121c-52 -18 -82 -68 -82 -122c0 -63 26 -101 91 -101c67 0 92 39 92 102z" />
    <glyph glyph-name="nine" unicode="9" 
d="M45 319c0 153 82 236 204 236c132 0 206 -78 206 -311c0 -262 -93 -383 -253 -383c-36 0 -93 5 -122 14c3 32 8 71 16 108c25 -7 71 -13 106 -13c84 0 134 49 140 196h-6c-28 -37 -68 -54 -118 -54c-95 0 -173 60 -173 207zM156 322c0 -89 39 -117 92 -117
c62 0 92 37 92 122c0 86 -30 128 -88 128c-63 0 -96 -39 -96 -133z" />
    <glyph glyph-name="colon" unicode=":" horiz-adv-x="251" 
d="M190 55c0 -45 -28 -66 -64 -66c-38 0 -65 21 -65 66c0 43 29 66 66 66c35 0 63 -23 63 -66zM190 421c0 -44 -28 -66 -64 -66c-38 0 -65 22 -65 66s28 66 66 66c35 0 63 -22 63 -66z" />
    <glyph glyph-name="semicolon" unicode=";" horiz-adv-x="251" 
d="M185 421c0 -44 -28 -66 -64 -66c-38 0 -65 22 -65 66c0 45 28 66 65 66c36 0 64 -22 64 -66zM184 59c0 -78 -46 -154 -117 -232l-97 26c84 99 106 141 106 225v35h104c3 -13 4 -41 4 -54z" />
    <glyph glyph-name="less" unicode="&#x3c;" horiz-adv-x="419" 
d="M361 45h-110l-205 229l205 226h110v-11l-201 -211l201 -224v-9z" />
    <glyph glyph-name="equal" unicode="=" horiz-adv-x="492" 
d="M431 326h-370v81h370v-81zM431 137h-370v81h370v-81z" />
    <glyph glyph-name="greater" unicode="&#x3e;" horiz-adv-x="419" 
d="M168 500l206 -230l-206 -225h-111v10l202 212l-202 223v10h111z" />
    <glyph glyph-name="question" unicode="?" horiz-adv-x="391" 
d="M365 499c0 -91 -60 -160 -184 -206v-94c-31 -6 -68 -10 -98 -11c-9 52 -15 112 -15 163c116 30 183 78 183 140c0 65 -31 88 -110 88c-29 0 -76 -4 -102 -9c-5 33 -9 70 -9 104c34 7 79 10 122 10c118 0 213 -59 213 -185zM197 55c0 -45 -28 -66 -64 -66
c-38 0 -66 21 -66 66c0 43 30 66 66 66s64 -23 64 -66z" />
    <glyph glyph-name="at" unicode="@" horiz-adv-x="835" 
d="M780 353c0 -159 -59 -262 -165 -262c-60 0 -100 16 -118 53h-3c-35 -38 -74 -54 -122 -54c-77 0 -132 42 -132 124c0 91 64 125 157 129l85 3v80c-18 9 -52 16 -84 16c-36 0 -77 -7 -100 -18c-6 23 -12 59 -12 88c38 11 76 16 120 16c62 0 126 -14 169 -46v-270
c0 -33 16 -49 48 -49c46 0 79 50 79 189c0 176 -108 259 -275 259c-187 0 -290 -113 -290 -313c0 -188 73 -293 264 -293c41 0 109 10 141 24c7 -24 12 -57 12 -76c-40 -14 -107 -23 -157 -23c-225 0 -342 125 -342 367c0 261 169 387 377 387c205 0 348 -117 348 -331z
M482 196v82l-83 -3c-47 -2 -61 -17 -61 -57c0 -38 20 -52 58 -52c30 0 64 12 86 30z" />
    <glyph glyph-name="A" unicode="A" horiz-adv-x="586" 
d="M571 6c-38 -8 -80 -11 -122 -11l-55 184h-211l-55 -184c-37 0 -78 3 -113 11c61 217 132 441 211 668h137c74 -222 146 -453 208 -668zM364 282l-64 214c-5 16 -7 31 -8 52h-8c-1 -21 -2 -36 -7 -52l-65 -214h152z" />
    <glyph glyph-name="B" unicode="B" horiz-adv-x="592" 
d="M540 190c0 -143 -103 -199 -232 -199c-58 0 -140 5 -216 14v662c58 8 136 14 203 14c133 0 220 -50 220 -175c0 -74 -40 -129 -97 -152v-8c78 -21 122 -72 122 -156zM394 493c0 63 -35 92 -100 92c-23 0 -47 -1 -81 -4v-192h90c57 0 91 35 91 104zM411 199
c0 68 -43 98 -103 98h-95v-203c34 -3 65 -5 87 -5c75 0 111 39 111 110z" />
    <glyph glyph-name="C" unicode="C" horiz-adv-x="576" 
d="M536 34c-50 -30 -125 -44 -185 -44c-194 0 -296 120 -296 348c0 241 125 346 290 346c61 0 139 -13 177 -33c-2 -32 -11 -75 -19 -111c-45 22 -100 34 -152 34c-97 0 -162 -54 -162 -236c0 -172 53 -238 165 -238c57 0 120 19 162 46c9 -34 17 -72 20 -112z" />
    <glyph glyph-name="D" unicode="D" horiz-adv-x="678" 
d="M623 351c0 -233 -125 -360 -301 -360c-69 0 -168 5 -230 14v662c57 8 169 14 229 14c165 0 302 -96 302 -330zM489 339c0 178 -79 232 -171 232c-29 0 -71 -2 -101 -5v-460c26 -3 71 -5 100 -5c114 0 172 72 172 238z" />
    <glyph glyph-name="E" unicode="E" horiz-adv-x="544" 
d="M495 110c0 -34 -5 -73 -10 -110h-393v674h386c0 -33 -4 -76 -9 -110h-252v-163h187v-108h-187v-183h278z" />
    <glyph glyph-name="F" unicode="F" horiz-adv-x="526" 
d="M480 674c0 -34 -2 -72 -8 -110h-255v-181h210v-109h-210v-274h-125v674h388z" />
    <glyph glyph-name="G" unicode="G" horiz-adv-x="642" 
d="M564 35c-47 -24 -134 -45 -213 -45c-196 0 -296 123 -296 348c0 242 127 346 305 346c64 0 142 -11 191 -32c-2 -33 -11 -78 -20 -114c-42 22 -108 36 -164 36c-110 0 -178 -48 -178 -241c0 -170 60 -233 164 -233c27 0 67 4 88 12v138h-102c-6 32 -10 72 -10 107h235
v-322z" />
    <glyph glyph-name="H" unicode="H" horiz-adv-x="692" 
d="M600 0h-125v295h-258v-295h-125v674h125v-267h258v267h125v-674z" />
    <glyph glyph-name="I" unicode="I" horiz-adv-x="309" 
d="M217 0h-125v674h125v-674z" />
    <glyph glyph-name="J" unicode="J" horiz-adv-x="322" 
d="M227 80c0 -125 -49 -228 -203 -241c-11 33 -19 77 -20 114c72 7 98 32 98 107v614h125v-594z" />
    <glyph glyph-name="K" unicode="K" horiz-adv-x="630" 
d="M593 668l-235 -285c88 -120 167 -240 249 -377c-41 -8 -92 -12 -130 -12l-196 298l-66 -78v-214h-123v674h123v-297h6l241 303c34 0 98 -5 131 -12z" />
    <glyph glyph-name="L" unicode="L" horiz-adv-x="503" 
d="M473 111c0 -37 -4 -75 -9 -111h-372v674h125v-563h256z" />
    <glyph glyph-name="M" unicode="M" horiz-adv-x="867" 
d="M793 5c-37 -7 -85 -9 -119 -9l-31 435c-1 14 -1 54 -1 71h-9c-3 -27 -9 -57 -13 -71l-130 -431h-118l-133 431c-4 14 -10 45 -12 71h-8c0 -17 -1 -58 -2 -71l-38 -435c-33 0 -77 3 -105 9c15 223 36 443 62 669h141l141 -453c7 -21 12 -51 14 -78h9c2 27 5 56 12 79
l137 452h143c25 -225 46 -447 60 -669z" />
    <glyph glyph-name="N" unicode="N" horiz-adv-x="694" 
d="M601 674v-670c-31 -5 -85 -9 -117 -9l-244 429c-9 16 -25 53 -32 76l-9 -1c3 -28 5 -57 5 -78v-421h-112v667c38 6 95 9 130 9l231 -406c11 -20 24 -51 32 -76l9 1c-3 21 -5 59 -5 81v398h112z" />
    <glyph glyph-name="O" unicode="O" horiz-adv-x="678" 
d="M623 337c0 -242 -116 -347 -284 -347c-174 0 -284 101 -284 343c0 233 112 351 284 351c174 0 284 -105 284 -347zM489 337c0 184 -53 240 -150 240c-100 0 -150 -56 -150 -240c0 -176 45 -240 150 -240s150 61 150 240z" />
    <glyph glyph-name="P" unicode="P" horiz-adv-x="579" 
d="M526 461c0 -166 -112 -234 -232 -234h-79v-227h-123v667c70 9 134 14 208 14c131 0 226 -71 226 -220zM402 462c0 79 -45 120 -109 120c-22 0 -48 -2 -78 -5v-248h66c77 0 121 43 121 133z" />
    <glyph glyph-name="Q" unicode="Q" horiz-adv-x="678" 
d="M623 337c0 -211 -88 -317 -225 -337c0 -64 34 -96 91 -96c28 0 73 7 93 16c7 -31 12 -70 14 -105c-37 -13 -88 -18 -120 -18c-106 0 -190 62 -192 199c-147 21 -229 128 -229 337c0 233 112 351 284 351c175 0 284 -106 284 -347zM489 336c0 185 -53 241 -150 241
c-100 0 -150 -56 -150 -241c0 -173 45 -239 150 -239s150 62 150 239z" />
    <glyph glyph-name="R" unicode="R" horiz-adv-x="601" 
d="M575 7c-41 -8 -89 -13 -131 -13l-50 106c-36 74 -73 135 -102 166h-78v-266h-122v667c82 10 146 14 209 14c122 0 224 -55 224 -198c0 -91 -57 -156 -129 -180c38 -33 75 -84 106 -147zM399 475c0 72 -38 105 -105 105c-27 0 -57 -2 -80 -4v-215h68c71 0 117 34 117 114z
" />
    <glyph glyph-name="S" unicode="S" horiz-adv-x="532" 
d="M478 191c0 -130 -96 -201 -238 -201c-56 0 -127 7 -182 31c5 38 16 78 25 108c51 -22 116 -33 171 -33c65 0 96 30 96 84c0 127 -290 107 -290 309c0 127 104 195 246 195c43 0 97 -4 143 -16c-2 -31 -8 -74 -16 -108c-44 11 -106 18 -149 18c-70 0 -96 -31 -96 -81
c0 -114 290 -105 290 -306z" />
    <glyph glyph-name="T" unicode="T" horiz-adv-x="497" 
d="M474 674c0 -35 -4 -76 -10 -110h-155v-564h-125v564h-161v110h451z" />
    <glyph glyph-name="U" unicode="U" horiz-adv-x="683" 
d="M593 274c0 -180 -72 -284 -252 -284c-157 0 -251 66 -251 284v400h125v-419c0 -114 29 -151 128 -151c92 0 132 40 132 151v419h118v-400z" />
    <glyph glyph-name="V" unicode="V" horiz-adv-x="588" 
d="M565 668c-60 -228 -129 -449 -205 -668h-136c-74 218 -142 442 -200 668c37 7 93 11 123 11l135 -484c5 -16 8 -36 10 -55h9c1 19 5 38 10 55l137 484c31 0 86 -4 117 -11z" />
    <glyph glyph-name="W" unicode="W" horiz-adv-x="928" 
d="M869 668c-37 -221 -86 -448 -138 -668h-132l-124 436c-4 15 -10 42 -12 69h-8c-2 -27 -8 -54 -12 -70l-118 -435h-132c-53 217 -101 448 -135 668c40 7 87 11 120 11l82 -444c4 -24 7 -50 7 -70h9c2 20 7 47 13 68l122 441h114l117 -442c5 -21 10 -47 12 -67h9
c1 21 5 46 9 67l87 447c32 0 78 -4 110 -11z" />
    <glyph glyph-name="X" unicode="X" horiz-adv-x="602" 
d="M585 6c-43 -8 -98 -12 -142 -12l-124 228c-8 15 -15 32 -21 48h-8c-5 -17 -11 -31 -20 -48l-121 -228c-35 0 -98 5 -132 12l196 341l-185 321c44 7 104 11 143 11l116 -212c9 -17 14 -29 18 -43h8c5 15 11 30 19 45l110 210c33 0 97 -5 133 -11l-184 -318z" />
    <glyph glyph-name="Y" unicode="Y" horiz-adv-x="551" 
d="M536 668c-61 -150 -124 -281 -198 -421v-247h-125v247c-76 140 -139 280 -198 421c37 7 98 11 130 11l114 -257c8 -18 14 -37 19 -55h8c6 18 12 38 20 57l111 255c35 0 82 -4 119 -11z" />
    <glyph glyph-name="Z" unicode="Z" horiz-adv-x="565" 
d="M515 110c0 -35 -4 -78 -9 -110h-450l-7 95l313 469h-291c-4 38 -7 74 -7 110h438l8 -95l-313 -469h318z" />
    <glyph glyph-name="bracketleft" unicode="[" horiz-adv-x="342" 
d="M304 -175h-214v910h214c0 -32 -3 -66 -8 -98h-98v-714h98c5 -32 8 -66 8 -98z" />
    <glyph glyph-name="backslash" unicode="\" horiz-adv-x="383" 
d="M409 -89c-26 -12 -56 -19 -84 -25l-313 785c24 7 64 13 90 13z" />
    <glyph glyph-name="bracketright" unicode="]" horiz-adv-x="342" 
d="M38 735h214v-910h-214c0 32 2 66 8 98h97v714h-97c-6 32 -8 66 -8 98z" />
    <glyph glyph-name="asciicircum" unicode="^" horiz-adv-x="493" 
d="M440 364c-31 -4 -67 -7 -103 -7l-91 249l-91 -249c-32 0 -68 3 -102 6c30 94 85 235 121 311h145c36 -75 90 -216 121 -310z" />
    <glyph glyph-name="underscore" unicode="_" 
d="M505 -139h-505v84h516c0 -28 -4 -59 -11 -84z" />
    <glyph glyph-name="grave" unicode="`" 
d="M337 579c-26 -4 -61 -7 -91 -7c-40 46 -76 105 -93 159h123z" />
    <glyph glyph-name="a" unicode="a" horiz-adv-x="538" 
d="M530 104v-37c0 -58 -38 -77 -85 -77c-44 0 -79 11 -96 54h-5c-45 -37 -89 -54 -142 -54c-90 0 -154 45 -154 147c0 113 68 153 192 158l92 4v110c-25 15 -64 21 -102 21c-43 0 -90 -9 -120 -22c-7 28 -14 68 -16 104c46 13 92 20 144 20c73 0 155 -17 203 -56v-338
c0 -25 7 -34 31 -34h58zM332 111v111l-93 -4c-56 -2 -76 -19 -76 -73c0 -46 20 -65 65 -65c35 0 78 11 104 31z" />
    <glyph glyph-name="b" unicode="b" horiz-adv-x="579" 
d="M526 281c0 -186 -87 -291 -235 -291c-78 0 -149 18 -203 60v686c32 4 78 8 114 8v-267h6c42 42 81 55 130 55c106 0 188 -69 188 -251zM404 270c0 125 -35 161 -101 161c-38 0 -73 -12 -101 -36v-284c21 -15 53 -22 83 -22c83 0 119 48 119 181z" />
    <glyph glyph-name="c" unicode="c" horiz-adv-x="469" 
d="M429 19c-32 -19 -94 -29 -134 -29c-156 0 -242 86 -242 262c0 198 106 280 228 280c47 0 102 -6 139 -20c-4 -32 -13 -74 -24 -109c-33 14 -73 20 -107 20c-74 0 -113 -39 -113 -157c0 -133 37 -167 123 -167c36 0 79 10 107 26c10 -33 19 -70 23 -106z" />
    <glyph glyph-name="d" unicode="d" horiz-adv-x="579" 
d="M377 117v296c-21 12 -57 21 -85 21c-79 0 -117 -43 -117 -177c0 -130 31 -166 100 -166c39 0 74 9 102 26zM491 0h-114v44h-6c-41 -40 -85 -54 -134 -54c-115 0 -184 82 -184 256c0 203 93 286 229 286c30 0 68 -7 95 -15v219c32 4 79 8 114 8v-744z" />
    <glyph glyph-name="e" unicode="e" horiz-adv-x="529" 
d="M476 309c0 -22 -1 -53 -4 -77h-294v-9c0 -85 27 -125 126 -125c47 0 107 14 138 32c11 -30 21 -72 26 -107c-43 -21 -117 -33 -166 -33c-160 0 -249 88 -249 264c0 188 94 278 223 278c137 0 200 -86 200 -223zM274 445c-60 0 -94 -41 -95 -136h181c1 6 1 23 1 29
c0 74 -29 107 -87 107z" />
    <glyph glyph-name="f" unicode="f" horiz-adv-x="360" 
d="M337 740c0 -34 -2 -68 -7 -102c-10 2 -38 3 -52 3c-41 0 -56 -20 -56 -63v-56h114c0 -33 -3 -67 -8 -100h-106v-422h-114v422h-60v100h60v47c0 110 77 175 168 175c20 0 49 -2 61 -4z" />
    <glyph glyph-name="g" unicode="g" horiz-adv-x="535" 
d="M501 -29c0 -110 -77 -187 -236 -187c-158 0 -210 68 -210 152c0 41 16 68 48 100c-12 21 -24 45 -31 69c7 30 30 93 57 127c-36 26 -59 70 -59 125c0 104 69 175 187 175c26 0 61 -4 86 -10h155c0 -26 -2 -56 -8 -83l-59 -6l-1 -5c13 -18 19 -44 19 -70
c0 -115 -77 -166 -180 -166c-25 0 -51 5 -69 9c-18 -25 -23 -48 -23 -59c0 -22 10 -30 31 -30h143c91 0 150 -31 150 -141zM393 -40c0 40 -13 48 -49 48h-173c-10 -13 -14 -35 -14 -50c0 -58 27 -80 115 -80c76 0 121 22 121 82zM346 363c0 66 -33 89 -84 89
c-56 0 -84 -28 -84 -89c0 -63 30 -89 84 -89c52 0 84 24 84 89z" />
    <glyph glyph-name="h" unicode="h" horiz-adv-x="587" 
d="M503 0h-114v361c0 41 -13 70 -78 70c-43 0 -77 -12 -109 -34v-397h-114v736c32 4 78 8 114 8v-271h6c48 43 91 59 144 59c89 0 151 -48 151 -160v-372z" />
    <glyph glyph-name="i" unicode="i" horiz-adv-x="289" 
d="M210 661c0 -36 -22 -67 -66 -67c-43 0 -64 32 -64 67s21 69 65 69s65 -33 65 -69zM202 0h-114v522h114v-522z" />
    <glyph glyph-name="j" unicode="j" horiz-adv-x="294" 
d="M207 -10c0 -128 -69 -197 -182 -206c-11 28 -20 71 -24 103c67 2 92 36 92 97v538h114v-532zM215 661c0 -36 -22 -67 -66 -67c-42 0 -64 32 -64 67s21 69 65 69s65 -33 65 -69z" />
    <glyph glyph-name="k" unicode="k" horiz-adv-x="528" 
d="M515 5c-28 -6 -84 -10 -121 -10l-127 231l-65 -75v-151h-114v736c32 4 78 8 114 8v-437h6l188 226c41 -5 82 -13 114 -23l-170 -198c60 -99 115 -195 175 -307z" />
    <glyph glyph-name="l" unicode="l" horiz-adv-x="289" 
d="M202 0h-114v736c32 4 78 8 114 8v-744z" />
    <glyph glyph-name="m" unicode="m" horiz-adv-x="848" 
d="M764 0h-114v362c0 42 -17 69 -71 69c-38 0 -68 -12 -96 -34v-397h-114v361c0 44 -17 70 -69 70c-35 0 -68 -12 -98 -34v-397h-114v518c32 4 78 7 114 7v-52h6c48 43 84 59 135 59c52 0 94 -18 117 -68c52 52 97 68 153 68c85 0 151 -44 151 -160v-372z" />
    <glyph glyph-name="n" unicode="n" horiz-adv-x="587" 
d="M503 0h-114v361c0 45 -18 70 -78 70c-41 0 -76 -11 -109 -34v-397h-114v518c32 4 78 7 114 7v-52h6c52 48 96 59 144 59c81 0 151 -41 151 -161v-371z" />
    <glyph glyph-name="o" unicode="o" horiz-adv-x="570" 
d="M518 261c0 -178 -103 -271 -235 -271c-137 0 -230 82 -230 271c0 171 97 271 233 271c132 0 232 -76 232 -271zM396 261c0 126 -40 173 -111 173c-67 0 -109 -44 -109 -173c0 -128 35 -173 107 -173s113 44 113 173z" />
    <glyph glyph-name="p" unicode="p" horiz-adv-x="579" 
d="M526 276c0 -198 -90 -286 -229 -286c-31 0 -64 6 -95 15v-211h-114v724c32 4 78 7 114 7v-48h6c42 41 86 55 134 55c115 0 184 -82 184 -256zM404 265c0 138 -38 166 -100 166c-36 0 -74 -9 -102 -27v-295c26 -14 56 -21 85 -21c85 0 117 51 117 177z" />
    <glyph glyph-name="q" unicode="q" horiz-adv-x="579" 
d="M491 -206h-114v250h-6c-40 -40 -85 -54 -134 -54c-114 0 -184 80 -184 255c0 192 87 287 235 287c69 0 146 -14 203 -40v-698zM377 117v300c-21 8 -57 15 -83 15c-83 0 -119 -45 -119 -176c0 -133 35 -165 100 -165c35 0 74 8 102 26z" />
    <glyph glyph-name="r" unicode="r" horiz-adv-x="391" 
d="M365 526c0 -39 -5 -80 -11 -118c-12 3 -30 5 -47 5c-36 0 -69 -8 -105 -36v-377h-114v518c32 4 78 7 114 7v-67h6c52 68 86 74 119 74c10 0 26 -2 38 -6z" />
    <glyph glyph-name="s" unicode="s" horiz-adv-x="457" 
d="M410 152c0 -113 -97 -162 -201 -162c-56 0 -118 13 -160 36c8 37 16 68 27 103c41 -22 103 -35 153 -35c45 0 63 20 63 53c0 87 -237 45 -237 218c0 112 99 167 210 167c34 0 86 -5 126 -16c-1 -31 -8 -69 -16 -103c-36 12 -96 20 -138 20s-63 -18 -63 -55
c0 -81 236 -39 236 -226z" />
    <glyph glyph-name="t" unicode="t" horiz-adv-x="401" 
d="M377 13c-27 -14 -78 -23 -106 -23c-116 0 -167 57 -167 179v253h-61v100h61v110c33 8 79 17 114 19v-129h134c0 -32 -2 -66 -7 -100h-127v-261c0 -54 20 -65 68 -65c25 0 58 7 75 16c8 -29 13 -66 16 -99z" />
    <glyph glyph-name="u" unicode="u" horiz-adv-x="587" 
d="M499 0h-114v45h-6c-47 -39 -92 -55 -143 -55c-80 0 -151 41 -151 161v367c33 5 78 7 114 7v-361c0 -47 21 -73 84 -73c39 0 72 10 102 27v400c33 5 78 7 114 7v-525z" />
    <glyph glyph-name="v" unicode="v" horiz-adv-x="506" 
d="M486 518c-48 -180 -105 -343 -173 -518h-123c-63 160 -124 341 -170 518c32 4 80 7 115 7l106 -340c5 -17 10 -39 12 -63h6c4 27 8 46 14 65l104 338c33 0 77 -2 109 -7z" />
    <glyph glyph-name="w" unicode="w" horiz-adv-x="797" 
d="M748 517c-28 -172 -65 -339 -118 -517h-115l-103 331c-6 16 -11 39 -13 61h-6c-3 -23 -9 -45 -14 -62l-100 -330h-115c-50 164 -87 338 -115 518c33 4 78 7 111 7l62 -326c4 -18 8 -48 10 -68h6c2 21 8 49 14 69l96 322h110l96 -321c5 -17 11 -45 16 -69h6
c1 23 4 47 9 70l62 323c30 0 70 -3 101 -8z" />
    <glyph glyph-name="x" unicode="x" horiz-adv-x="525" 
d="M505 5c-40 -6 -92 -9 -133 -9l-95 166c-8 13 -12 25 -17 43h-6c-6 -18 -10 -29 -18 -43l-94 -166c-39 0 -87 4 -122 9l164 277l-156 236c43 5 92 7 133 7l89 -152c7 -14 14 -29 18 -46h6c5 17 12 36 18 47l86 151c41 0 84 -2 122 -7l-159 -251z" />
    <glyph glyph-name="y" unicode="y" horiz-adv-x="520" 
d="M499 517l-167 -501c-46 -138 -130 -232 -228 -232c-25 0 -66 3 -97 19c4 37 12 76 21 105c20 -9 57 -13 85 -13c35 0 57 16 75 56l21 47c-60 135 -134 341 -175 519c32 5 80 8 112 8l101 -339c5 -17 12 -43 15 -61h6c4 18 10 44 16 62l104 338c31 0 78 -2 111 -8z" />
    <glyph glyph-name="z" unicode="z" horiz-adv-x="487" 
d="M439 0h-393l-10 94l260 328h-230c-5 34 -8 69 -8 100h364l11 -94l-260 -328h254c7 -30 11 -70 12 -100z" />
    <glyph glyph-name="braceleft" unicode="{" horiz-adv-x="339" 
d="M297 -81c0 -29 -4 -72 -9 -99c-168 0 -235 40 -235 125c0 87 106 175 106 227c0 40 -20 56 -116 56v106c96 0 116 15 116 55c0 52 -106 139 -106 226c0 83 81 125 237 125c4 -26 7 -72 7 -99c-100 0 -129 -7 -129 -45c0 -45 102 -140 102 -207c0 -51 -21 -85 -114 -104
v-7c91 -19 114 -54 114 -106c0 -65 -102 -163 -102 -208c0 -36 23 -45 129 -45z" />
    <glyph glyph-name="bar" unicode="|" horiz-adv-x="260" 
d="M174 -206h-88v938h88v-938z" />
    <glyph glyph-name="braceright" unicode="}" horiz-adv-x="339" 
d="M297 227c-96 0 -117 -15 -117 -55c0 -52 106 -139 106 -226c0 -83 -80 -125 -236 -125c-5 26 -7 72 -7 99c100 0 128 7 128 45c0 45 -101 140 -101 207c0 51 20 85 114 104v7c-92 19 -114 54 -114 106c0 65 101 163 101 208c0 36 -22 45 -128 45c0 29 3 72 8 99
c168 0 235 -40 235 -125c0 -87 -106 -175 -106 -227c0 -40 20 -56 117 -56v-106z" />
    <glyph glyph-name="asciitilde" unicode="~" horiz-adv-x="495" 
d="M469 362c-21 -139 -60 -172 -121 -172c-65 0 -150 85 -188 85c-25 0 -33 -17 -41 -85c-23 0 -67 6 -93 17c21 137 60 173 121 173c64 0 149 -85 189 -85c25 0 32 16 41 85c23 0 72 -8 92 -18z" />
    <glyph glyph-name="Adieresis" unicode="&#xc4;" horiz-adv-x="586" 
d="M260 761c0 -30 -22 -54 -59 -54c-38 0 -58 24 -58 54s20 54 58 54c37 0 59 -23 59 -54zM444 761c0 -30 -22 -54 -60 -54c-37 0 -57 24 -57 54s20 54 57 54c38 0 60 -23 60 -54zM571 6c-38 -8 -80 -11 -122 -11l-55 184h-211l-55 -184c-37 0 -78 3 -113 11
c61 217 132 441 211 668h137c74 -222 146 -453 208 -668zM364 282l-64 214c-5 16 -7 31 -8 52h-8c-1 -21 -2 -36 -7 -52l-65 -214h152z" />
    <glyph glyph-name="Aring" unicode="&#xc5;" horiz-adv-x="586" 
d="M571 6c-38 -8 -80 -11 -122 -11l-55 184h-211l-55 -184c-37 0 -78 3 -113 11c59 213 126 421 209 663c-36 14 -52 43 -52 82c0 57 41 95 123 95c85 0 122 -34 122 -95c0 -38 -19 -66 -53 -82c76 -226 149 -460 207 -663zM364 282l-64 214c-4 13 -7 29 -8 52h-8
c-1 -25 -3 -37 -7 -52l-65 -214h152zM336 752c0 26 -13 40 -41 40c-25 0 -42 -12 -42 -40c0 -27 11 -41 40 -41c27 0 43 12 43 41z" />
    <glyph glyph-name="Ccedilla" unicode="&#xc7;" horiz-adv-x="576" 
d="M536 34c-50 -30 -125 -44 -185 -44c-194 0 -296 120 -296 348c0 241 125 346 290 346c61 0 139 -13 177 -33c-2 -32 -11 -75 -19 -111c-45 22 -100 34 -152 34c-97 0 -162 -54 -162 -236c0 -172 53 -238 165 -238c57 0 120 19 162 46c9 -34 17 -72 20 -112zM436 -117
c0 -63 -43 -99 -135 -99c-17 0 -49 2 -69 5c-3 21 -4 42 -4 62c20 -4 49 -6 64 -6c39 0 58 9 58 38c0 28 -16 39 -53 39c-11 0 -26 0 -44 -1c2 14 7 36 13 50h58c76 0 112 -32 112 -88z" />
    <glyph glyph-name="Eacute" unicode="&#xc9;" horiz-adv-x="544" 
d="M381 815c-15 -41 -35 -68 -83 -109c-32 0 -74 4 -104 7l58 102h129zM495 110c0 -34 -5 -73 -10 -110h-393v674h386c0 -33 -4 -76 -9 -110h-252v-163h187v-108h-187v-183h278z" />
    <glyph glyph-name="Ntilde" unicode="&#xd1;" horiz-adv-x="694" 
d="M195 717c18 83 47 106 95 106c42 0 92 -36 121 -36c20 0 30 3 35 40c19 -1 60 -7 77 -13c-13 -86 -45 -106 -90 -106c-43 0 -98 35 -124 35c-21 0 -34 -9 -37 -40c-17 0 -53 4 -77 14zM601 674v-670c-31 -5 -85 -9 -117 -9l-244 429c-9 16 -25 53 -32 76l-9 -1
c3 -28 5 -57 5 -78v-421h-112v667c38 6 95 9 130 9l231 -406c11 -20 24 -51 32 -76l9 1c-3 21 -5 59 -5 81v398h112z" />
    <glyph glyph-name="Odieresis" unicode="&#xd6;" horiz-adv-x="678" 
d="M306 761c0 -30 -22 -54 -59 -54c-38 0 -58 24 -58 54s20 54 58 54c37 0 59 -23 59 -54zM490 761c0 -30 -22 -54 -60 -54c-37 0 -57 24 -57 54s20 54 57 54c38 0 60 -23 60 -54zM623 337c0 -242 -116 -347 -284 -347c-174 0 -284 101 -284 343c0 233 112 351 284 351
c174 0 284 -105 284 -347zM489 337c0 184 -53 240 -150 240c-100 0 -150 -56 -150 -240c0 -176 45 -240 150 -240s150 61 150 240z" />
    <glyph glyph-name="Udieresis" unicode="&#xdc;" horiz-adv-x="683" 
d="M314 761c0 -30 -22 -54 -59 -54c-38 0 -58 24 -58 54s20 54 58 54c37 0 59 -23 59 -54zM498 761c0 -30 -22 -54 -60 -54c-37 0 -57 24 -57 54s20 54 57 54c38 0 60 -23 60 -54zM593 274c0 -180 -72 -284 -252 -284c-157 0 -251 66 -251 284v400h125v-419
c0 -114 29 -151 128 -151c92 0 132 40 132 151v419h118v-400z" />
    <glyph glyph-name="aacute" unicode="&#xe1;" horiz-adv-x="538" 
d="M530 104v-37c0 -58 -38 -77 -85 -77c-44 0 -79 11 -96 54h-5c-45 -37 -89 -54 -142 -54c-90 0 -154 45 -154 147c0 113 68 153 192 158l92 4v110c-25 15 -64 21 -102 21c-43 0 -90 -9 -120 -22c-7 28 -14 68 -16 104c46 13 92 20 144 20c73 0 155 -17 203 -56v-338
c0 -25 7 -34 31 -34h58zM332 111v111l-93 -4c-56 -2 -76 -19 -76 -73c0 -46 20 -65 65 -65c35 0 78 11 104 31zM379 731c-18 -54 -53 -113 -93 -159c-30 0 -65 3 -91 7l61 152h123z" />
    <glyph glyph-name="agrave" unicode="&#xe0;" horiz-adv-x="538" 
d="M530 104v-37c0 -58 -38 -77 -85 -77c-44 0 -79 11 -96 54h-5c-45 -37 -89 -54 -142 -54c-90 0 -154 45 -154 147c0 113 68 153 192 158l92 4v110c-25 15 -64 21 -102 21c-43 0 -90 -9 -120 -22c-7 28 -14 68 -16 104c46 13 92 20 144 20c73 0 155 -17 203 -56v-338
c0 -25 7 -34 31 -34h58zM332 111v111l-93 -4c-56 -2 -76 -19 -76 -73c0 -46 20 -65 65 -65c35 0 78 11 104 31zM292 579c-26 -4 -61 -7 -91 -7c-40 46 -76 105 -93 159h123z" />
    <glyph glyph-name="acircumflex" unicode="&#xe2;" horiz-adv-x="538" 
d="M530 104v-37c0 -58 -38 -77 -85 -77c-44 0 -79 11 -96 54h-5c-45 -37 -89 -54 -142 -54c-90 0 -154 45 -154 147c0 113 68 153 192 158l92 4v110c-25 15 -64 21 -102 21c-43 0 -90 -9 -120 -22c-7 28 -14 68 -16 104c46 13 92 20 144 20c73 0 155 -17 203 -56v-338
c0 -25 7 -34 31 -34h58zM332 111v111l-93 -4c-56 -2 -76 -19 -76 -73c0 -46 20 -65 65 -65c35 0 78 11 104 31zM437 579c-32 -5 -67 -7 -102 -7l-67 100l-64 -100c-32 0 -68 2 -100 6c27 55 56 105 89 153h153c35 -49 64 -99 91 -152z" />
    <glyph glyph-name="adieresis" unicode="&#xe4;" horiz-adv-x="538" 
d="M530 104v-37c0 -58 -38 -77 -85 -77c-44 0 -79 11 -96 54h-5c-45 -37 -89 -54 -142 -54c-90 0 -154 45 -154 147c0 113 68 153 192 158l92 4v110c-25 15 -64 21 -102 21c-43 0 -90 -9 -120 -22c-7 28 -14 68 -16 104c46 13 92 20 144 20c73 0 155 -17 203 -56v-338
c0 -25 7 -34 31 -34h58zM332 111v111l-93 -4c-56 -2 -76 -19 -76 -73c0 -46 20 -65 65 -65c35 0 78 11 104 31zM221 643c0 -37 -22 -64 -63 -64c-40 0 -61 28 -61 64c0 35 20 65 62 65c41 0 62 -29 62 -65zM407 643c0 -37 -21 -64 -62 -64c-40 0 -62 28 -62 64
c0 35 21 65 63 65c40 0 61 -29 61 -65z" />
    <glyph glyph-name="atilde" unicode="&#xe3;" horiz-adv-x="538" 
d="M530 104v-37c0 -58 -38 -77 -85 -77c-44 0 -79 11 -96 54h-5c-45 -37 -89 -54 -142 -54c-90 0 -154 45 -154 147c0 113 68 153 192 158l92 4v110c-25 15 -64 21 -102 21c-43 0 -90 -9 -120 -22c-7 28 -14 68 -16 104c46 13 92 20 144 20c73 0 155 -17 203 -56v-338
c0 -25 7 -34 31 -34h58zM332 111v111l-93 -4c-56 -2 -76 -19 -76 -73c0 -46 20 -65 65 -65c35 0 78 11 104 31zM80 587c26 117 59 132 111 132c18 0 36 -5 51 -13l53 -29c11 -6 22 -10 32 -10c20 0 25 8 36 59c19 0 57 -7 83 -17c-27 -116 -58 -133 -109 -133
c-18 0 -36 5 -54 14l-50 27c-12 6 -24 11 -33 11c-22 0 -28 -8 -37 -58c-23 0 -57 7 -83 17z" />
    <glyph glyph-name="aring" unicode="&#xe5;" horiz-adv-x="538" 
d="M530 104v-37c0 -58 -38 -77 -85 -77c-44 0 -79 11 -96 54h-5c-45 -37 -89 -54 -142 -54c-90 0 -154 45 -154 147c0 113 68 153 192 158l92 4v110c-25 15 -64 21 -102 21c-43 0 -90 -9 -120 -22c-7 28 -14 68 -16 104c46 13 92 20 144 20c73 0 155 -17 203 -56v-338
c0 -25 7 -34 31 -34h58zM332 111v111l-93 -4c-56 -2 -76 -19 -76 -73c0 -46 20 -65 65 -65c35 0 78 11 104 31zM379 669c0 -58 -44 -99 -122 -99c-86 0 -124 40 -124 99c0 58 42 101 124 101c84 0 122 -39 122 -101zM298 670c0 28 -13 44 -41 44c-26 0 -43 -14 -43 -44
s12 -45 41 -45c27 0 43 14 43 45z" />
    <glyph glyph-name="ccedilla" unicode="&#xe7;" horiz-adv-x="469" 
d="M429 19c-32 -19 -94 -29 -134 -29c-156 0 -242 86 -242 262c0 198 106 280 228 280c47 0 102 -6 139 -20c-4 -32 -13 -74 -24 -109c-33 14 -73 20 -107 20c-74 0 -113 -39 -113 -157c0 -133 37 -167 123 -167c36 0 79 10 107 26c10 -33 19 -70 23 -106zM374 -117
c0 -63 -43 -99 -135 -99c-17 0 -49 2 -69 5c-3 21 -4 42 -4 62c20 -4 49 -6 64 -6c39 0 58 9 58 38c0 28 -16 39 -53 39c-11 0 -26 0 -44 -1c2 14 7 36 13 50h58c76 0 112 -32 112 -88z" />
    <glyph glyph-name="eacute" unicode="&#xe9;" horiz-adv-x="529" 
d="M476 309c0 -22 -1 -53 -4 -77h-294v-9c0 -85 27 -125 126 -125c47 0 107 14 138 32c11 -30 21 -72 26 -107c-43 -21 -117 -33 -166 -33c-160 0 -249 88 -249 264c0 188 94 278 223 278c137 0 200 -86 200 -223zM274 445c-60 0 -94 -41 -95 -136h181c1 6 1 23 1 29
c0 74 -29 107 -87 107zM401 731c-18 -54 -53 -113 -93 -159c-30 0 -65 3 -91 7l61 152h123z" />
    <glyph glyph-name="egrave" unicode="&#xe8;" horiz-adv-x="529" 
d="M476 309c0 -22 -1 -53 -4 -77h-294v-9c0 -85 27 -125 126 -125c47 0 107 14 138 32c11 -30 21 -72 26 -107c-43 -21 -117 -33 -166 -33c-160 0 -249 88 -249 264c0 188 94 278 223 278c137 0 200 -86 200 -223zM274 445c-60 0 -94 -41 -95 -136h181c1 6 1 23 1 29
c0 74 -29 107 -87 107zM330 579c-26 -4 -61 -7 -91 -7c-40 46 -76 105 -93 159h123z" />
    <glyph glyph-name="ecircumflex" unicode="&#xea;" horiz-adv-x="529" 
d="M476 309c0 -22 -1 -53 -4 -77h-294v-9c0 -85 27 -125 126 -125c47 0 107 14 138 32c11 -30 21 -72 26 -107c-43 -21 -117 -33 -166 -33c-160 0 -249 88 -249 264c0 188 94 278 223 278c137 0 200 -86 200 -223zM274 445c-60 0 -94 -41 -95 -136h181c1 6 1 23 1 29
c0 74 -29 107 -87 107zM443 579c-32 -5 -67 -7 -102 -7l-67 100l-64 -100c-32 0 -68 2 -100 6c27 55 56 105 89 153h153c35 -49 64 -99 91 -152z" />
    <glyph glyph-name="edieresis" unicode="&#xeb;" horiz-adv-x="529" 
d="M476 309c0 -22 -1 -53 -4 -77h-294v-9c0 -85 27 -125 126 -125c47 0 107 14 138 32c11 -30 21 -72 26 -107c-43 -21 -117 -33 -166 -33c-160 0 -249 88 -249 264c0 188 94 278 223 278c137 0 200 -86 200 -223zM274 445c-60 0 -94 -41 -95 -136h181c1 6 1 23 1 29
c0 74 -29 107 -87 107zM247 643c0 -37 -22 -64 -63 -64c-40 0 -61 28 -61 64c0 35 20 65 62 65c41 0 62 -29 62 -65zM433 643c0 -37 -21 -64 -62 -64c-40 0 -62 28 -62 64c0 35 21 65 63 65c40 0 61 -29 61 -65z" />
    <glyph glyph-name="iacute" unicode="&#xed;" horiz-adv-x="289" 
d="M202 0h-114v522h114v-522zM277 731c-18 -54 -53 -113 -93 -159c-30 0 -65 3 -91 7l61 152h123z" />
    <glyph glyph-name="igrave" unicode="&#xec;" horiz-adv-x="289" 
d="M202 0h-114v522h114v-522zM197 579c-26 -4 -61 -7 -91 -7c-40 46 -76 105 -93 159h123z" />
    <glyph glyph-name="icircumflex" unicode="&#xee;" horiz-adv-x="289" 
d="M202 0h-114v522h114v-522zM311 579c-32 -5 -67 -7 -102 -7l-67 100l-64 -100c-32 0 -68 2 -100 6c27 55 56 105 89 153h153c35 -49 64 -99 91 -152z" />
    <glyph glyph-name="idieresis" unicode="&#xef;" horiz-adv-x="289" 
d="M202 0h-114v522h114v-522zM114 643c0 -37 -22 -64 -63 -64c-40 0 -61 28 -61 64c0 35 20 65 62 65c41 0 62 -29 62 -65zM300 643c0 -37 -21 -64 -62 -64c-40 0 -62 28 -62 64c0 35 21 65 63 65c40 0 61 -29 61 -65z" />
    <glyph glyph-name="ntilde" unicode="&#xf1;" horiz-adv-x="587" 
d="M503 0h-114v361c0 45 -18 70 -78 70c-41 0 -76 -11 -109 -34v-397h-114v518c32 4 78 7 114 7v-52h6c52 48 96 59 144 59c81 0 151 -41 151 -161v-371zM119 587c26 117 59 132 111 132c18 0 36 -5 51 -13l53 -29c11 -6 22 -10 32 -10c20 0 25 8 36 59c19 0 57 -7 83 -17
c-27 -116 -58 -133 -109 -133c-18 0 -36 5 -54 14l-50 27c-12 6 -24 11 -33 11c-22 0 -28 -8 -37 -58c-23 0 -57 7 -83 17z" />
    <glyph glyph-name="oacute" unicode="&#xf3;" horiz-adv-x="570" 
d="M518 261c0 -178 -103 -271 -235 -271c-137 0 -230 82 -230 271c0 171 97 271 233 271c132 0 232 -76 232 -271zM396 261c0 126 -40 173 -111 173c-67 0 -109 -44 -109 -173c0 -128 35 -173 107 -173s113 44 113 173zM415 731c-18 -54 -53 -113 -93 -159
c-30 0 -65 3 -91 7l61 152h123z" />
    <glyph glyph-name="ograve" unicode="&#xf2;" horiz-adv-x="570" 
d="M518 261c0 -178 -103 -271 -235 -271c-137 0 -230 82 -230 271c0 171 97 271 233 271c132 0 232 -76 232 -271zM396 261c0 126 -40 173 -111 173c-67 0 -109 -44 -109 -173c0 -128 35 -173 107 -173s113 44 113 173zM341 579c-26 -4 -61 -7 -91 -7
c-40 46 -76 105 -93 159h123z" />
    <glyph glyph-name="ocircumflex" unicode="&#xf4;" horiz-adv-x="570" 
d="M518 261c0 -178 -103 -271 -235 -271c-137 0 -230 82 -230 271c0 171 97 271 233 271c132 0 232 -76 232 -271zM396 261c0 126 -40 173 -111 173c-67 0 -109 -44 -109 -173c0 -128 35 -173 107 -173s113 44 113 173zM453 579c-32 -5 -67 -7 -102 -7l-67 100l-64 -100
c-32 0 -68 2 -100 6c27 55 56 105 89 153h153c35 -49 64 -99 91 -152z" />
    <glyph glyph-name="odieresis" unicode="&#xf6;" horiz-adv-x="570" 
d="M518 261c0 -178 -103 -271 -235 -271c-137 0 -230 82 -230 271c0 171 97 271 233 271c132 0 232 -76 232 -271zM396 261c0 126 -40 173 -111 173c-67 0 -109 -44 -109 -173c0 -128 35 -173 107 -173s113 44 113 173zM256 643c0 -37 -22 -64 -63 -64c-40 0 -61 28 -61 64
c0 35 20 65 62 65c41 0 62 -29 62 -65zM442 643c0 -37 -21 -64 -62 -64c-40 0 -62 28 -62 64c0 35 21 65 63 65c40 0 61 -29 61 -65z" />
    <glyph glyph-name="otilde" unicode="&#xf5;" horiz-adv-x="570" 
d="M518 261c0 -178 -103 -271 -235 -271c-137 0 -230 82 -230 271c0 171 97 271 233 271c132 0 232 -76 232 -271zM396 261c0 126 -40 173 -111 173c-67 0 -109 -44 -109 -173c0 -128 35 -173 107 -173s113 44 113 173zM103 587c26 117 59 132 111 132c18 0 36 -5 51 -13
l53 -29c11 -6 22 -10 32 -10c20 0 25 8 36 59c19 0 57 -7 83 -17c-27 -116 -58 -133 -109 -133c-18 0 -36 5 -54 14l-50 27c-12 6 -24 11 -33 11c-22 0 -28 -8 -37 -58c-23 0 -57 7 -83 17z" />
    <glyph glyph-name="uacute" unicode="&#xfa;" horiz-adv-x="587" 
d="M499 0h-114v45h-6c-47 -39 -92 -55 -143 -55c-80 0 -151 41 -151 161v367c33 5 78 7 114 7v-361c0 -47 21 -73 84 -73c39 0 72 10 102 27v400c33 5 78 7 114 7v-525zM430 731c-18 -54 -53 -113 -93 -159c-30 0 -65 3 -91 7l61 152h123z" />
    <glyph glyph-name="ugrave" unicode="&#xf9;" horiz-adv-x="587" 
d="M499 0h-114v45h-6c-47 -39 -92 -55 -143 -55c-80 0 -151 41 -151 161v367c33 5 78 7 114 7v-361c0 -47 21 -73 84 -73c39 0 72 10 102 27v400c33 5 78 7 114 7v-525zM347 579c-26 -4 -61 -7 -91 -7c-40 46 -76 105 -93 159h123z" />
    <glyph glyph-name="ucircumflex" unicode="&#xfb;" horiz-adv-x="587" 
d="M499 0h-114v45h-6c-47 -39 -92 -55 -143 -55c-80 0 -151 41 -151 161v367c33 5 78 7 114 7v-361c0 -47 21 -73 84 -73c39 0 72 10 102 27v400c33 5 78 7 114 7v-525zM461 579c-32 -5 -67 -7 -102 -7l-67 100l-64 -100c-32 0 -68 2 -100 6c27 55 56 105 89 153h153
c35 -49 64 -99 91 -152z" />
    <glyph glyph-name="udieresis" unicode="&#xfc;" horiz-adv-x="587" 
d="M499 0h-114v45h-6c-47 -39 -92 -55 -143 -55c-80 0 -151 41 -151 161v367c33 5 78 7 114 7v-361c0 -47 21 -73 84 -73c39 0 72 10 102 27v400c33 5 78 7 114 7v-525zM261 643c0 -37 -22 -64 -63 -64c-40 0 -61 28 -61 64c0 35 20 65 62 65c41 0 62 -29 62 -65zM447 643
c0 -37 -21 -64 -62 -64c-40 0 -62 28 -62 64c0 35 21 65 63 65c40 0 61 -29 61 -65z" />
    <glyph glyph-name="dagger" unicode="&#x2020;" horiz-adv-x="522" 
d="M480 262h-162v-390c-34 -7 -76 -10 -114 -10v400h-162v108h162v175h114v-175h162v-108z" />
    <glyph glyph-name="degree" unicode="&#xb0;" horiz-adv-x="320" 
d="M285 551c0 -74 -49 -128 -125 -128c-80 0 -125 50 -125 126c0 75 51 128 125 128c77 0 125 -50 125 -126zM223 551c0 42 -26 71 -63 71c-38 0 -62 -30 -62 -71c0 -42 22 -72 62 -72c41 0 63 29 63 72z" />
    <glyph glyph-name="cent" unicode="&#xa2;" 
d="M458 98c-25 -15 -70 -24 -105 -28l3 -70h-101l4 72c-124 19 -200 102 -200 255c0 174 93 255 199 272l-3 75h101l-3 -73c33 -3 71 -8 95 -18c-3 -34 -11 -74 -21 -109c-33 14 -81 20 -116 20c-75 0 -130 -35 -130 -153c0 -133 52 -163 140 -163c37 0 87 10 116 25
c9 -34 16 -69 21 -105z" />
    <glyph glyph-name="sterling" unicode="&#xa3;" 
d="M487 105c0 -33 -4 -70 -11 -105h-392v95c57 14 86 54 86 121c0 31 -14 65 -30 100h-90v81h53c-9 28 -16 57 -16 87c0 115 83 200 226 200c44 0 95 -4 136 -14c0 -31 -5 -72 -13 -108c-29 9 -92 17 -132 17c-72 0 -97 -30 -97 -100c0 -25 8 -54 20 -82h206
c0 -27 -4 -54 -10 -81h-158c13 -31 25 -64 25 -97c0 -50 -27 -88 -61 -114h258z" />
    <glyph glyph-name="section" unicode="&#xa7;" horiz-adv-x="501" 
d="M466 297c0 -62 -41 -119 -104 -151c-28 15 -52 35 -74 60c45 20 68 45 68 75c0 108 -264 85 -264 251c0 89 83 152 198 152c31 0 82 -4 119 -13c-2 -27 -8 -74 -14 -101c-37 9 -89 17 -131 17c-41 0 -63 -15 -63 -48c0 -78 265 -69 265 -242zM35 248c0 63 41 120 103 151
c29 -15 51 -35 75 -59c-46 -20 -69 -45 -69 -76c0 -108 265 -85 265 -251c0 -89 -84 -152 -198 -152c-32 0 -82 4 -120 14c2 26 8 73 15 100c35 -9 88 -17 130 -17c41 0 63 15 63 48c0 78 -264 69 -264 242z" />
    <glyph glyph-name="bullet" unicode="&#x2022;" horiz-adv-x="352" 
d="M284 275c0 -67 -47 -110 -108 -110c-63 0 -108 43 -108 110c0 68 45 113 108 113c61 0 108 -45 108 -113z" />
    <glyph glyph-name="paragraph" unicode="&#xb6;" 
d="M444 658v-533c0 -129 -43 -198 -149 -264l-37 48c96 63 121 119 121 214v485c-15 6 -54 11 -70 11v-496c0 -75 -19 -116 -89 -163l-34 49c44 26 58 53 58 104v105h-24c-107 0 -191 57 -191 218c0 173 115 248 241 248c56 0 120 -9 174 -26z" />
    <glyph glyph-name="germandbls" unicode="&#xdf;" horiz-adv-x="568" 
d="M537 133c0 -95 -77 -143 -169 -143c-41 0 -88 7 -130 27c8 41 15 74 29 107c34 -20 70 -28 94 -28c36 0 52 15 52 44c0 68 -154 109 -154 221c0 96 115 151 115 214c0 48 -21 68 -76 68c-73 0 -96 -37 -96 -105v-538h-114v539c0 130 88 205 215 205
c121 0 196 -55 196 -151c0 -98 -118 -148 -118 -222c0 -71 156 -116 156 -238z" />
    <glyph glyph-name="registered" unicode="&#xae;" horiz-adv-x="725" 
d="M658 338c0 -191 -124 -316 -296 -316c-171 0 -295 123 -295 316c0 186 123 313 295 313c166 0 296 -120 296 -313zM613 335c0 165 -106 275 -251 275c-157 0 -251 -112 -251 -275c0 -158 100 -273 251 -273s251 108 251 273zM474 232l38 -83c-25 -5 -56 -7 -80 -7l-26 58
c-19 41 -40 72 -55 88h-42v-143h-74v374c47 5 89 7 126 7c69 0 125 -31 125 -112c0 -49 -32 -87 -70 -100c21 -19 41 -48 58 -82zM410 409c0 38 -21 55 -57 55c-15 0 -30 -1 -44 -2v-114h38c37 0 63 17 63 61z" />
    <glyph glyph-name="copyright" unicode="&#xa9;" horiz-adv-x="725" 
d="M658 338c0 -191 -124 -316 -296 -316c-171 0 -295 123 -295 316c0 186 123 313 295 313c166 0 296 -120 296 -313zM485 163c-28 -18 -72 -25 -107 -25c-109 0 -173 68 -173 196c0 135 77 194 170 194c35 0 81 -7 102 -18c-1 -20 -5 -50 -10 -71c-25 12 -58 18 -89 18
c-52 0 -88 -26 -88 -123c0 -90 30 -125 91 -125c33 0 70 10 94 25c5 -19 9 -47 10 -71zM613 335c0 165 -106 275 -251 275c-157 0 -251 -112 -251 -275c0 -158 100 -273 251 -273s251 108 251 273z" />
    <glyph glyph-name="trademark" unicode="&#x2122;" horiz-adv-x="789" 
d="M740 327c-21 -3 -55 -4 -75 -4l-15 200c-1 7 -2 29 -2 36h-5c-2 -15 -6 -25 -9 -34l-71 -200h-80l-73 200c-3 8 -7 22 -9 34h-4c0 -6 -1 -26 -2 -36l-21 -200c-20 0 -50 2 -66 4c8 118 20 229 38 347h89l82 -228c3 -9 5 -20 7 -32h6c2 12 5 24 8 33l77 227h90
c16 -116 28 -240 35 -347zM284 674c0 -14 -1 -48 -5 -71h-86v-278h-81v278h-89v71h261z" />
    <glyph glyph-name="acute" unicode="&#xb4;" 
d="M348 731c-18 -54 -53 -113 -93 -159c-30 0 -65 3 -91 7l61 152h123z" />
    <glyph glyph-name="dieresis" unicode="&#xa8;" 
d="M219 643c0 -37 -22 -64 -63 -64c-40 0 -61 28 -61 64c0 35 20 65 62 65c41 0 62 -29 62 -65zM405 643c0 -37 -21 -64 -62 -64c-40 0 -62 28 -62 64c0 35 21 65 63 65c40 0 61 -29 61 -65z" />
    <glyph glyph-name="notequal" unicode="&#x2260;" horiz-adv-x="492" 
d="M431 137h-249l-72 -108h-49l72 108h-72v81h127l74 108h-201v81h256l64 97h50l-65 -97h65v-81h-120l-74 -108h194v-81z" />
    <glyph glyph-name="AE" unicode="&#xc6;" horiz-adv-x="827" 
d="M380 300v268h-9l-129 -268h138zM777 110c0 -34 -4 -73 -8 -110h-389v196h-185l-98 -202c-35 0 -87 5 -125 12c117 247 219 443 346 668h443c0 -30 -4 -76 -9 -110h-251v-163h187v-108h-187v-183h276z" />
    <glyph glyph-name="Oslash" unicode="&#xd8;" horiz-adv-x="678" 
d="M623 337c0 -242 -115 -347 -283 -347c-56 0 -106 11 -147 33l-44 -84h-43l55 104c-67 53 -106 146 -106 290c0 233 113 351 285 351c55 0 104 -11 145 -34l44 82h44l-55 -104c67 -54 105 -148 105 -291zM190 337c0 -83 10 -141 32 -179l208 390c-23 20 -54 29 -91 29
c-99 0 -149 -56 -149 -240zM490 337c0 83 -11 140 -34 178l-208 -390c23 -20 53 -28 92 -28c105 0 150 61 150 240z" />
    <glyph glyph-name="infinity" unicode="&#x221e;" horiz-adv-x="889" 
d="M245 40c-115 0 -195 80 -195 226c0 125 68 217 198 217c75 0 142 -35 197 -123c54 86 116 123 202 123c119 0 192 -88 192 -224c0 -129 -73 -219 -193 -219c-76 0 -150 38 -203 122c-44 -73 -104 -122 -198 -122zM640 139c66 0 93 51 93 125c0 77 -33 120 -99 120
c-67 0 -109 -43 -145 -122c37 -83 87 -123 151 -123zM259 139c69 0 114 56 142 122c-34 75 -82 123 -146 123c-73 0 -99 -49 -99 -124c0 -68 21 -121 103 -121z" />
    <glyph glyph-name="plusminus" unicode="&#xb1;" horiz-adv-x="455" 
d="M395 296h-127v-127h-81v127h-127v80h127v124h81v-124h127v-80zM395 45h-335v83h335v-83z" />
    <glyph glyph-name="lessequal" unicode="&#x2264;" horiz-adv-x="454" 
d="M378 158h-118l-190 170l190 172h117v-11l-190 -156l191 -164v-11zM394 45h-334v82h334v-82z" />
    <glyph glyph-name="greaterequal" unicode="&#x2265;" horiz-adv-x="455" 
d="M194 500l190 -171l-190 -171h-117v11l190 159l-191 161v11h118zM395 45h-335v82h335v-82z" />
    <glyph glyph-name="yen" unicode="&#xa5;" horiz-adv-x="501" 
d="M490 668c-50 -133 -93 -246 -150 -365h109c0 -26 -3 -54 -9 -81h-128v-222h-123v222h-129v81h102c-56 118 -102 236 -151 365c36 7 94 11 126 11l97 -262c7 -18 16 -47 21 -69h6c5 23 12 52 19 71l94 260c35 0 79 -4 116 -11z" />
    <glyph glyph-name="mu" unicode="&#xb5;" horiz-adv-x="590" 
d="M502 0h-114v45h-6c-42 -37 -81 -55 -128 -55c-20 0 -39 4 -52 15v-211h-114v724c33 5 77 7 114 7v-361c0 -49 23 -73 84 -73c39 0 71 9 102 27v400c33 5 78 7 114 7v-525z" />
    <glyph glyph-name="partialdiff" unicode="&#x2202;" horiz-adv-x="556" 
d="M506 375c0 -263 -71 -385 -227 -385c-138 0 -227 63 -227 254c0 186 87 271 221 271c9 0 20 -1 29 -4c13 3 27 4 40 4c12 0 24 -1 35 -4c-7 98 -54 129 -148 129c-44 0 -102 -11 -135 -25c0 35 3 79 7 107c41 16 101 22 141 22c150 0 264 -63 264 -369zM387 310
c0 28 -1 64 -2 88c-28 12 -64 19 -100 19c-68 0 -110 -39 -110 -165c0 -120 25 -161 104 -161c77 0 108 50 108 219z" />
    <glyph glyph-name="summation" unicode="&#x2211;" horiz-adv-x="533" 
d="M194 109h290c0 -31 -3 -69 -10 -109h-436v101l240 250l-221 223v100h410c0 -37 -4 -74 -9 -110h-243l171 -177v-83z" />
    <glyph glyph-name="product" unicode="&#x220f;" horiz-adv-x="693" 
d="M601 0h-125v556h-259v-556h-125v674h509v-674z" />
    <glyph glyph-name="pi" unicode="&#x3c0;" horiz-adv-x="644" 
d="M628 9c-27 -13 -67 -19 -96 -19c-102 0 -136 59 -136 152v270h-162v-412h-110v412h-90v110h587c0 -32 -4 -76 -8 -110h-107v-261c0 -43 14 -57 47 -57c25 0 45 6 62 15c8 -29 13 -71 13 -100z" />
    <glyph glyph-name="integral" unicode="&#x222b;" horiz-adv-x="322" 
d="M326 740c0 -34 -2 -68 -7 -102c-10 2 -39 3 -52 3c-43 0 -58 -22 -58 -67v-611c0 -111 -75 -179 -170 -179c-20 0 -48 2 -61 4c0 34 2 68 7 102c9 -2 39 -3 52 -3c43 0 57 22 57 67v611c0 111 76 179 172 179c19 0 48 -2 60 -4z" />
    <glyph glyph-name="ordfeminine" unicode="&#xaa;" horiz-adv-x="380" 
d="M355 411v-25c0 -37 -22 -51 -54 -51c-25 0 -45 10 -57 35h-3c-27 -25 -59 -35 -96 -35c-60 0 -101 29 -101 92c0 76 45 99 128 103l58 3v53c-15 8 -40 11 -64 11c-25 0 -60 -5 -79 -14c-7 21 -13 58 -14 78c30 9 68 13 100 13c46 0 104 -11 136 -34v-207
c0 -16 5 -22 21 -22h25zM230 414v66l-58 -3c-34 -2 -45 -14 -45 -41s10 -38 42 -38c20 0 46 6 61 16z" />
    <glyph glyph-name="ordmasculine" unicode="&#xba;" horiz-adv-x="380" 
d="M349 504c0 -110 -68 -169 -161 -169c-96 0 -157 53 -157 169c0 107 64 170 159 170c93 0 159 -48 159 -170zM258 504c0 76 -28 98 -69 98c-39 0 -67 -24 -67 -98c0 -73 25 -97 66 -97c42 0 70 23 70 97z" />
    <glyph glyph-name="Omega" unicode="&#x2126;" horiz-adv-x="686" 
d="M630 0h-255l-5 90c78 38 127 132 127 289c0 144 -53 194 -155 194c-100 0 -153 -50 -153 -195s44 -251 127 -288l-4 -90h-256v109h130v7c-78 55 -121 151 -121 272c0 185 96 296 278 296c183 0 278 -112 278 -295c0 -125 -41 -215 -121 -273v-7h130v-109z" />
    <glyph glyph-name="ae" unicode="&#xe6;" horiz-adv-x="796" 
d="M743 309c0 -24 -1 -43 -4 -70l-295 -11v-5c0 -85 32 -125 127 -125c48 0 103 13 138 32c9 -25 22 -76 26 -107c-45 -22 -117 -33 -166 -33c-79 0 -142 20 -189 80h-3c-56 -56 -111 -80 -175 -80c-95 0 -154 51 -154 148c0 113 66 154 193 159l96 4c1 33 8 82 19 106
c-30 15 -84 23 -124 23c-43 0 -89 -8 -122 -22c-8 28 -16 79 -16 104c51 14 94 20 145 20c63 0 135 -12 181 -44c32 30 76 44 123 44c125 0 200 -72 200 -223zM228 80c42 0 86 14 124 49c-11 26 -17 60 -17 96l-95 -4c-56 -2 -77 -22 -77 -75c0 -45 18 -66 65 -66zM627 310
c1 6 1 22 1 28c0 73 -29 107 -87 107c-60 0 -94 -45 -95 -141z" />
    <glyph glyph-name="oslash" unicode="&#xf8;" horiz-adv-x="571" 
d="M518 261c0 -178 -103 -271 -235 -271c-41 0 -77 8 -108 22l-47 -87h-43l58 106c-57 42 -90 117 -90 230c0 171 97 271 233 271c41 0 80 -8 113 -24l44 81h42l-54 -101c54 -42 87 -115 87 -227zM176 261c0 -58 8 -99 22 -127l151 280c-17 14 -38 20 -64 20
c-67 0 -109 -44 -109 -173zM396 261c0 54 -8 93 -22 120l-150 -278c15 -11 36 -15 59 -15c72 0 113 44 113 173z" />
    <glyph glyph-name="questiondown" unicode="&#xbf;" horiz-adv-x="391" 
d="M24 36c0 90 59 159 183 205v94c32 7 68 10 98 12c9 -52 16 -113 16 -163c-116 -30 -183 -78 -183 -141c0 -65 31 -88 110 -88c29 0 75 5 101 9c6 -32 9 -69 9 -104c-34 -6 -79 -10 -122 -10c-118 0 -212 59 -212 186zM191 480c0 44 29 65 65 65c37 0 65 -21 65 -65
s-29 -67 -65 -67s-65 23 -65 67z" />
    <glyph glyph-name="exclamdown" unicode="&#xa1;" horiz-adv-x="249" 
d="M68 -140c0 158 7 322 16 475c26 5 57 8 86 9c10 -157 18 -323 18 -484h-120zM63 480c0 44 27 65 64 65s65 -22 65 -65c0 -45 -29 -67 -65 -67c-37 0 -64 23 -64 67z" />
    <glyph glyph-name="logicalnot" unicode="&#xac;" horiz-adv-x="498" 
d="M456 142c-29 -6 -63 -9 -91 -9v140h-330v92h421v-223z" />
    <glyph glyph-name="radical" unicode="&#x221a;" horiz-adv-x="523" 
d="M524 674c0 -31 -2 -68 -8 -99h-85l-82 -575h-118c-78 167 -150 343 -214 529c28 5 80 10 112 10l130 -336c7 -15 14 -36 18 -55h7c0 21 3 42 5 58l61 468h174z" />
    <glyph glyph-name="florin" unicode="&#x192;" 
d="M422 680c0 -34 -3 -68 -7 -102c-10 2 -39 4 -53 4c-49 0 -75 -28 -75 -79v-110h153c0 -33 -3 -65 -7 -98h-146v-427h-114v427h-130v98h130v101c0 120 82 190 187 190c20 0 49 -2 62 -4z" />
    <glyph glyph-name="approxequal" unicode="&#x2248;" horiz-adv-x="496" 
d="M438 332c-25 -22 -55 -36 -88 -36c-68 0 -127 43 -194 43c-3 0 -5 0 -7 -1c-35 -1 -65 -15 -91 -40v81c28 26 60 41 98 41c66 0 126 -42 193 -42c2 0 5 0 8 1c30 1 57 14 81 35v-82zM438 144c-25 -22 -55 -35 -88 -35c-68 0 -127 43 -194 43c-38 0 -70 -16 -98 -41v80
c28 26 60 41 98 41c66 0 126 -42 193 -42c2 0 5 0 8 1c30 2 57 13 81 34v-81z" />
    <glyph glyph-name="Delta" unicode="&#x2206;" horiz-adv-x="585" 
d="M572 0h-559c61 219 136 448 213 674h137c74 -222 147 -456 209 -674zM415 104l-115 396c-4 12 -7 32 -8 48h-8c-1 -16 -3 -36 -7 -48l-119 -396h257z" />
    <glyph glyph-name="guillemotleft" unicode="&#xab;" horiz-adv-x="495" 
d="M259 56l-93 -13l-139 220l139 220l93 -14l-122 -207zM469 56l-94 -13l-139 220l139 220l94 -14l-122 -207z" />
    <glyph glyph-name="guillemotright" unicode="&#xbb;" horiz-adv-x="495" 
d="M469 262l-140 -219l-93 13l121 207l-121 206l93 14zM259 262l-139 -219l-93 13l121 207l-121 206l93 14z" />
    <glyph glyph-name="ellipsis" unicode="&#x2026;" horiz-adv-x="709" 
d="M178 52c0 -44 -28 -65 -64 -65c-38 0 -65 21 -65 65s29 67 66 67c35 0 63 -23 63 -67zM419 52c0 -44 -27 -65 -64 -65c-38 0 -65 21 -65 65s28 67 66 67c36 0 63 -23 63 -67zM660 52c0 -44 -27 -65 -64 -65c-38 0 -65 21 -65 65s28 67 66 67c36 0 63 -23 63 -67z" />
    <glyph glyph-name="nbspace" unicode="&#xa0;" horiz-adv-x="204" 
 />
    <glyph glyph-name="Agrave" unicode="&#xc0;" horiz-adv-x="586" 
d="M571 6c-38 -8 -80 -11 -122 -11l-55 184h-211l-55 -184c-37 0 -78 3 -113 11c61 217 132 441 211 668h137c74 -222 146 -453 208 -668zM364 282l-64 214c-5 16 -7 31 -8 52h-8c-1 -21 -2 -36 -7 -52l-65 -214h152zM299 815l58 -102c-30 -3 -72 -7 -104 -7
c-48 41 -68 68 -84 109h130z" />
    <glyph glyph-name="Atilde" unicode="&#xc3;" horiz-adv-x="586" 
d="M571 6c-38 -8 -80 -11 -122 -11l-55 184h-211l-55 -184c-37 0 -78 3 -113 11c61 217 132 441 211 668h137c74 -222 146 -453 208 -668zM364 282l-64 214c-5 16 -7 31 -8 52h-8c-1 -21 -2 -36 -7 -52l-65 -214h152zM128 717c18 83 47 106 95 106c42 0 92 -36 121 -36
c20 0 30 3 35 40c19 -1 60 -7 77 -13c-13 -86 -45 -106 -90 -106c-43 0 -98 35 -124 35c-21 0 -34 -9 -37 -40c-17 0 -53 4 -77 14z" />
    <glyph glyph-name="Otilde" unicode="&#xd5;" horiz-adv-x="678" 
d="M623 337c0 -242 -116 -347 -284 -347c-174 0 -284 101 -284 343c0 233 112 351 284 351c174 0 284 -105 284 -347zM489 337c0 184 -53 240 -150 240c-100 0 -150 -56 -150 -240c0 -176 45 -240 150 -240s150 61 150 240zM174 717c18 83 47 106 95 106
c42 0 92 -36 121 -36c20 0 30 3 35 40c19 -1 60 -7 77 -13c-13 -86 -45 -106 -90 -106c-43 0 -98 35 -124 35c-21 0 -34 -9 -37 -40c-17 0 -53 4 -77 14z" />
    <glyph glyph-name="OE" unicode="&#x152;" horiz-adv-x="915" 
d="M866 110c0 -34 -4 -73 -9 -110h-362v61h-5c-39 -51 -101 -71 -161 -71c-181 0 -274 116 -274 343c0 220 97 351 274 351c66 0 125 -21 161 -67h5v57h355c0 -33 -4 -76 -9 -110h-252v-163h188v-108h-188v-183h277zM471 337c0 170 -42 240 -139 240
c-100 0 -143 -61 -143 -240c0 -174 39 -240 143 -240c105 0 139 75 139 240z" />
    <glyph glyph-name="oe" unicode="&#x153;" horiz-adv-x="857" 
d="M804 310c0 -24 -2 -56 -4 -78h-295v-7c0 -88 30 -127 126 -127c43 0 102 11 139 32c10 -30 22 -79 26 -107c-43 -21 -117 -33 -166 -33c-91 0 -139 31 -175 89c-43 -64 -101 -89 -172 -89c-139 0 -230 84 -230 271c0 169 95 271 233 271c71 0 131 -25 167 -81
c31 53 83 81 150 81c142 0 201 -92 201 -222zM396 261c0 122 -37 173 -111 173c-68 0 -109 -45 -109 -173c0 -126 33 -173 107 -173c73 0 113 47 113 173zM688 309c1 7 1 24 1 29c0 75 -30 107 -88 107s-93 -39 -95 -136h182z" />
    <glyph glyph-name="endash" unicode="&#x2013;" 
d="M443 223h-388v84h398c0 -29 -4 -60 -10 -84z" />
    <glyph glyph-name="emdash" unicode="&#x2014;" horiz-adv-x="1000" 
d="M929 223h-859v84h869c0 -29 -5 -62 -10 -84z" />
    <glyph glyph-name="quotedblleft" unicode="&#x201c;" horiz-adv-x="444" 
d="M36 512c0 101 40 178 128 214c14 -17 27 -38 36 -62c-58 -23 -81 -63 -81 -108h42c10 -36 14 -79 14 -115h-139v71zM241 512c0 101 39 178 127 214c15 -17 28 -38 36 -62c-58 -23 -80 -63 -80 -108h41c11 -36 14 -79 14 -115h-138v71z" />
    <glyph glyph-name="quotedblright" unicode="&#x201d;" horiz-adv-x="444" 
d="M203 643c0 -101 -40 -178 -128 -214c-15 18 -27 38 -35 61c58 24 80 63 80 109h-41c-11 36 -15 78 -15 114h139v-70zM408 643c0 -101 -40 -178 -128 -214c-15 18 -28 38 -36 61c58 24 80 63 80 109h-41c-11 36 -14 78 -14 114h139v-70z" />
    <glyph glyph-name="quoteleft" unicode="&#x2018;" horiz-adv-x="240" 
d="M36 512c0 101 40 178 128 214c14 -17 27 -38 36 -62c-58 -23 -81 -63 -81 -108h42c10 -36 14 -79 14 -115h-139v71z" />
    <glyph glyph-name="quoteright" unicode="&#x2019;" horiz-adv-x="240" 
d="M203 643c0 -101 -40 -178 -128 -214c-15 18 -27 38 -35 61c58 24 80 63 80 109h-41c-11 36 -15 78 -15 114h139v-70z" />
    <glyph glyph-name="divide" unicode="&#xf7;" horiz-adv-x="409" 
d="M269 89c0 -43 -27 -65 -64 -65s-65 22 -65 65c0 45 29 67 65 67c37 0 64 -22 64 -67zM269 458c0 -45 -27 -66 -64 -66s-65 21 -65 66c0 44 29 66 65 66c37 0 64 -23 64 -66zM350 237h-291v74h291v-74z" />
    <glyph glyph-name="lozenge" unicode="&#x25ca;" horiz-adv-x="459" 
d="M425 224c-43 -80 -93 -158 -147 -234h-98c-53 76 -101 153 -146 234v83c44 82 92 159 146 238h98c54 -73 104 -154 147 -238v-83zM336 266l-107 183l-105 -180l107 -182z" />
    <glyph glyph-name="ydieresis" unicode="&#xff;" horiz-adv-x="520" 
d="M499 517l-167 -501c-46 -138 -130 -232 -228 -232c-25 0 -66 3 -97 19c4 37 12 76 21 105c20 -9 57 -13 85 -13c35 0 57 16 75 56l21 47c-60 135 -134 341 -175 519c32 5 80 8 112 8l101 -339c5 -17 12 -43 15 -61h6c4 18 10 44 16 62l104 338c31 0 78 -2 111 -8z
M239 643c0 -37 -22 -64 -63 -64c-40 0 -61 28 -61 64c0 35 20 65 62 65c41 0 62 -29 62 -65zM425 643c0 -37 -21 -64 -62 -64c-40 0 -62 28 -62 64c0 35 21 65 63 65c40 0 61 -29 61 -65z" />
    <glyph glyph-name="Ydieresis" unicode="&#x178;" horiz-adv-x="551" 
d="M536 668c-61 -150 -124 -281 -198 -421v-247h-125v247c-76 140 -139 280 -198 421c37 7 98 11 130 11l114 -257c8 -18 14 -37 19 -55h8c6 18 12 38 20 57l111 255c35 0 82 -4 119 -11zM246 761c0 -30 -22 -54 -59 -54c-38 0 -58 24 -58 54s20 54 58 54
c37 0 59 -23 59 -54zM430 761c0 -30 -22 -54 -60 -54c-37 0 -57 24 -57 54s20 54 57 54c38 0 60 -23 60 -54z" />
    <glyph glyph-name="fraction" unicode="&#x2044;" horiz-adv-x="160" 
d="M254 672l-274 -683c-28 5 -48 11 -74 24l270 671c23 0 57 -5 78 -12z" />
    <glyph glyph-name="currency" unicode="&#xa4;" 
d="M397 224h-185c12 -93 51 -124 123 -124c42 0 88 8 123 29c8 -34 13 -71 16 -111c-44 -20 -97 -28 -144 -28c-141 0 -219 78 -243 234h-57v73h50c-1 14 -1 27 -1 41c0 13 0 24 1 38h-50v73h58c26 166 117 235 236 235c44 0 105 -7 137 -18c-1 -32 -7 -75 -15 -112
c-34 13 -75 20 -117 20c-62 0 -102 -26 -118 -125h217c0 -18 -4 -46 -10 -73h-212c-2 -13 -2 -25 -2 -39c0 -13 0 -27 1 -40h202c0 -21 -4 -46 -10 -73z" />
    <glyph glyph-name="guilsinglleft" unicode="&#x2039;" horiz-adv-x="285" 
d="M259 56l-93 -13l-139 220l139 220l93 -14l-122 -207z" />
    <glyph glyph-name="guilsinglright" unicode="&#x203a;" horiz-adv-x="285" 
d="M259 262l-139 -219l-93 13l121 207l-121 206l93 14z" />
    <glyph glyph-name="fi" unicode="&#xfb01;" horiz-adv-x="620" 
d="M533 0h-114v422h-197v-422h-114v422h-60v100h60v47c0 110 77 175 168 175c20 0 49 -2 61 -4c0 -29 -2 -68 -7 -102c-11 2 -36 3 -52 3c-41 0 -56 -20 -56 -63v-56h311v-522zM541 661c0 -36 -21 -67 -65 -67c-43 0 -65 32 -65 67s21 69 66 69c44 0 64 -33 64 -69z" />
    <glyph glyph-name="fl" unicode="&#xfb02;" horiz-adv-x="626" 
d="M539 0h-114v637c-28 4 -78 9 -119 9c-63 0 -84 -19 -84 -62v-62h108c0 -33 -3 -67 -8 -100h-100v-422h-114v422h-60v100h60v53c0 111 81 169 203 169c58 0 158 -7 228 -20v-724z" />
    <glyph glyph-name="daggerdbl" unicode="&#x2021;" horiz-adv-x="522" 
d="M480 30h-162v-158c-34 -7 -76 -10 -114 -10v168h-162v108h162v135h-162v109h162v163h114v-163h162v-109h-162v-135h162v-108z" />
    <glyph glyph-name="periodcentered" unicode="&#xb7;" horiz-adv-x="231" 
d="M180 290c0 -43 -28 -65 -64 -65c-38 0 -65 22 -65 65c0 46 28 67 65 67c36 0 64 -22 64 -67z" />
    <glyph glyph-name="quotesinglbase" unicode="&#x201a;" horiz-adv-x="240" 
d="M203 96c0 -101 -40 -178 -128 -214c-15 18 -27 39 -35 61c57 24 79 65 79 108h-41c-10 36 -14 79 -14 115h139v-70z" />
    <glyph glyph-name="quotedblbase" unicode="&#x201e;" horiz-adv-x="444" 
d="M203 96c0 -101 -40 -178 -128 -214c-15 18 -27 39 -35 61c57 24 79 65 79 108h-41c-10 36 -14 79 -14 115h139v-70zM408 96c0 -101 -40 -178 -128 -214c-14 18 -28 39 -36 61c57 24 80 65 80 108h-42c-10 36 -13 79 -13 115h139v-70z" />
    <glyph glyph-name="perthousand" unicode="&#x2030;" horiz-adv-x="1171" 
d="M349 494c0 -123 -60 -190 -158 -190c-94 0 -159 56 -159 190c0 130 67 190 159 190c97 0 158 -59 158 -190zM257 494c0 74 -14 116 -66 116c-49 0 -67 -39 -67 -116c0 -81 17 -116 67 -116c51 0 66 39 66 116zM583 671l-271 -682c-27 4 -50 13 -75 24l264 669
c25 0 57 -5 82 -11zM781 180c0 -123 -60 -190 -158 -190c-94 0 -160 56 -160 190c0 130 67 190 160 190c97 0 158 -59 158 -190zM688 180c0 74 -13 116 -65 116c-49 0 -67 -39 -67 -116c0 -81 17 -116 67 -116s65 39 65 116zM1139 180c0 -123 -60 -190 -158 -190
c-94 0 -159 56 -159 190c0 130 67 190 159 190c97 0 158 -59 158 -190zM1047 180c0 74 -14 116 -66 116c-49 0 -66 -39 -66 -116c0 -81 16 -116 66 -116c51 0 66 39 66 116z" />
    <glyph glyph-name="Acircumflex" unicode="&#xc2;" horiz-adv-x="586" 
d="M571 6c-38 -8 -80 -11 -122 -11l-55 184h-211l-55 -184c-37 0 -78 3 -113 11c61 217 132 441 211 668h137c74 -222 146 -453 208 -668zM364 282l-64 214c-5 16 -7 31 -8 52h-8c-1 -21 -2 -36 -7 -52l-65 -214h152zM445 711c-27 -4 -67 -6 -99 -6l-52 70l-53 -70
c-29 0 -69 2 -99 5c24 43 42 73 67 105h171c25 -34 43 -64 65 -104z" />
    <glyph glyph-name="Ecircumflex" unicode="&#xca;" horiz-adv-x="544" 
d="M495 110c0 -34 -5 -73 -10 -110h-393v674h386c0 -33 -4 -76 -9 -110h-252v-163h187v-108h-187v-183h278zM434 711c-27 -4 -67 -6 -99 -6l-52 70l-53 -70c-29 0 -69 2 -99 5c24 43 42 73 67 105h171c25 -34 43 -64 65 -104z" />
    <glyph glyph-name="Aacute" unicode="&#xc1;" horiz-adv-x="586" 
d="M571 6c-38 -8 -80 -11 -122 -11l-55 184h-211l-55 -184c-37 0 -78 3 -113 11c61 217 132 441 211 668h137c74 -222 146 -453 208 -668zM364 282l-64 214c-5 16 -7 31 -8 52h-8c-1 -21 -2 -36 -7 -52l-65 -214h152zM418 815c-15 -41 -35 -68 -83 -109c-32 0 -74 4 -104 7
l58 102h129z" />
    <glyph glyph-name="Edieresis" unicode="&#xcb;" horiz-adv-x="544" 
d="M495 110c0 -34 -5 -73 -10 -110h-393v674h386c0 -33 -4 -76 -9 -110h-252v-163h187v-108h-187v-183h278zM248 761c0 -30 -22 -54 -59 -54c-38 0 -58 24 -58 54s20 54 58 54c37 0 59 -23 59 -54zM432 761c0 -30 -22 -54 -60 -54c-37 0 -57 24 -57 54s20 54 57 54
c38 0 60 -23 60 -54z" />
    <glyph glyph-name="Egrave" unicode="&#xc8;" horiz-adv-x="544" 
d="M495 110c0 -34 -5 -73 -10 -110h-393v674h386c0 -33 -4 -76 -9 -110h-252v-163h187v-108h-187v-183h278zM290 815l58 -102c-30 -3 -72 -7 -104 -7c-48 41 -68 68 -84 109h130z" />
    <glyph glyph-name="Iacute" unicode="&#xcd;" horiz-adv-x="309" 
d="M283 815c-15 -41 -35 -68 -83 -109c-32 0 -74 4 -104 7l58 102h129zM217 0h-125v674h125v-674z" />
    <glyph glyph-name="Icircumflex" unicode="&#xce;" horiz-adv-x="309" 
d="M304 709c-26 -4 -65 -6 -96 -6l-50 71l-52 -71c-28 0 -66 2 -95 5c23 44 40 74 64 106h166c24 -34 41 -64 63 -105zM217 0h-125v674h125v-674z" />
    <glyph glyph-name="Idieresis" unicode="&#xcf;" horiz-adv-x="309" 
d="M122 761c0 -30 -22 -54 -57 -54c-37 0 -56 24 -56 54s19 54 56 54c35 0 57 -23 57 -54zM300 761c0 -30 -22 -54 -58 -54s-56 24 -56 54s20 54 56 54s58 -23 58 -54zM217 0h-125v674h125v-674z" />
    <glyph glyph-name="Igrave" unicode="&#xcc;" horiz-adv-x="309" 
d="M157 815l58 -102c-30 -3 -72 -7 -104 -7c-48 41 -68 68 -84 109h130zM217 0h-125v674h125v-674z" />
    <glyph glyph-name="Oacute" unicode="&#xd3;" horiz-adv-x="678" 
d="M623 337c0 -242 -116 -347 -284 -347c-174 0 -284 101 -284 343c0 233 112 351 284 351c174 0 284 -105 284 -347zM489 337c0 184 -53 240 -150 240c-100 0 -150 -56 -150 -240c0 -176 45 -240 150 -240s150 61 150 240zM458 815c-15 -41 -35 -68 -83 -109
c-32 0 -74 4 -104 7l58 102h129z" />
    <glyph glyph-name="Ocircumflex" unicode="&#xd4;" horiz-adv-x="678" 
d="M623 337c0 -242 -116 -347 -284 -347c-174 0 -284 101 -284 343c0 233 112 351 284 351c174 0 284 -105 284 -347zM489 337c0 184 -53 240 -150 240c-100 0 -150 -56 -150 -240c0 -176 45 -240 150 -240s150 61 150 240zM491 711c-27 -4 -67 -6 -99 -6l-52 70l-53 -70
c-29 0 -69 2 -99 5c24 43 42 73 67 105h171c25 -34 43 -64 65 -104z" />
    <glyph glyph-name="Ograve" unicode="&#xd2;" horiz-adv-x="678" 
d="M623 337c0 -242 -116 -347 -284 -347c-174 0 -284 101 -284 343c0 233 112 351 284 351c174 0 284 -105 284 -347zM489 337c0 184 -53 240 -150 240c-100 0 -150 -56 -150 -240c0 -176 45 -240 150 -240s150 61 150 240zM346 815l58 -102c-30 -3 -72 -7 -104 -7
c-48 41 -68 68 -84 109h130z" />
    <glyph glyph-name="Uacute" unicode="&#xda;" horiz-adv-x="683" 
d="M593 274c0 -180 -72 -284 -252 -284c-157 0 -251 66 -251 284v400h125v-419c0 -114 29 -151 128 -151c92 0 132 40 132 151v419h118v-400zM465 815c-15 -41 -35 -68 -83 -109c-32 0 -74 4 -104 7l58 102h129z" />
    <glyph glyph-name="Ucircumflex" unicode="&#xdb;" horiz-adv-x="683" 
d="M593 274c0 -180 -72 -284 -252 -284c-157 0 -251 66 -251 284v400h125v-419c0 -114 29 -151 128 -151c92 0 132 40 132 151v419h118v-400zM498 711c-27 -4 -67 -6 -99 -6l-52 70l-53 -70c-29 0 -69 2 -99 5c24 43 42 73 67 105h171c25 -34 43 -64 65 -104z" />
    <glyph glyph-name="Ugrave" unicode="&#xd9;" horiz-adv-x="683" 
d="M593 274c0 -180 -72 -284 -252 -284c-157 0 -251 66 -251 284v400h125v-419c0 -114 29 -151 128 -151c92 0 132 40 132 151v419h118v-400zM351 815l58 -102c-30 -3 -72 -7 -104 -7c-48 41 -68 68 -84 109h130z" />
    <glyph glyph-name="dotlessi" unicode="&#x131;" horiz-adv-x="289" 
d="M202 0h-114v522h114v-522z" />
    <glyph glyph-name="circumflex" unicode="&#x2c6;" 
d="M418 579c-32 -5 -67 -7 -102 -7l-67 100l-64 -100c-32 0 -68 2 -100 6c27 55 56 105 89 153h153c35 -49 64 -99 91 -152z" />
    <glyph glyph-name="tilde" unicode="&#x2dc;" 
d="M67 587c26 117 59 132 111 132c18 0 36 -5 51 -13l53 -29c11 -6 22 -10 32 -10c20 0 25 8 36 59c19 0 57 -7 83 -17c-27 -116 -58 -133 -109 -133c-18 0 -36 5 -54 14l-50 27c-12 6 -24 11 -33 11c-22 0 -28 -8 -37 -58c-23 0 -57 7 -83 17z" />
    <glyph glyph-name="macron" unicode="&#xaf;" 
d="M379 693c0 -28 -3 -63 -9 -93h-243v93h252z" />
    <glyph glyph-name="breve" unicode="&#x2d8;" 
d="M434 714c-30 -115 -104 -144 -185 -144c-86 0 -153 30 -182 144c26 11 60 19 93 24c11 -56 41 -79 91 -79c49 0 80 21 93 79c34 -5 64 -14 90 -24z" />
    <glyph glyph-name="dotaccent" unicode="&#x2d9;" 
d="M315 642c0 -36 -21 -67 -65 -67c-43 0 -65 32 -65 67s21 69 66 69c43 0 64 -33 64 -69z" />
    <glyph glyph-name="ring" unicode="&#x2da;" 
d="M373 669c0 -58 -44 -99 -122 -99c-86 0 -124 40 -124 99c0 58 42 101 124 101c84 0 122 -39 122 -101zM292 670c0 28 -13 44 -41 44c-26 0 -43 -14 -43 -44s12 -45 41 -45c27 0 43 14 43 45z" />
    <glyph glyph-name="cedilla" unicode="&#xb8;" 
d="M376 -117c0 -63 -43 -99 -135 -99c-17 0 -49 2 -69 5c-3 21 -4 42 -4 62c20 -4 49 -6 64 -6c39 0 58 9 58 38c0 28 -16 39 -53 39c-11 0 -26 0 -44 -1c2 14 7 36 13 50h58c76 0 112 -32 112 -88z" />
    <glyph glyph-name="hungarumlaut" unicode="&#x2dd;" 
d="M272 731c-18 -54 -52 -112 -92 -159c-30 0 -61 3 -87 7l60 152h119zM429 731c-17 -54 -51 -112 -92 -159c-30 0 -61 3 -87 7l60 152h119z" />
    <glyph glyph-name="ogonek" unicode="&#x2db;" 
d="M376 20c-123 -57 -145 -88 -145 -128c0 -37 23 -47 54 -47c17 0 33 2 50 5c0 -15 -3 -44 -6 -61c-26 -4 -54 -5 -71 -5c-65 0 -112 25 -112 92c0 63 38 103 185 160z" />
    <glyph glyph-name="caron" unicode="&#x2c7;" 
d="M84 727c31 4 66 7 101 7l67 -101l65 101c32 0 67 -3 99 -6c-27 -55 -56 -105 -89 -153h-153c-35 49 -64 98 -90 152z" />
    <glyph glyph-name="scedilla" unicode="&#x15f;" horiz-adv-x="457" 
d="M410 152c0 -113 -97 -162 -201 -162c-56 0 -118 13 -160 36c8 37 16 68 27 103c41 -22 103 -35 153 -35c45 0 63 20 63 53c0 87 -237 45 -237 218c0 112 99 167 210 167c34 0 86 -5 126 -16c-1 -31 -8 -69 -16 -103c-36 12 -96 20 -138 20s-63 -18 -63 -55
c0 -81 236 -39 236 -226zM333 -117c0 -63 -43 -99 -135 -99c-17 0 -49 2 -69 5c-3 21 -4 42 -4 62c20 -4 49 -6 64 -6c39 0 58 9 58 38c0 28 -16 39 -53 39c-11 0 -26 0 -44 -1c2 14 7 36 13 50h58c76 0 112 -32 112 -88z" />
    <glyph glyph-name="Idotaccent" unicode="&#x130;" horiz-adv-x="309" 
d="M217 0h-125v674h125v-674zM220 794c0 -36 -21 -67 -65 -67c-43 0 -65 32 -65 67s21 69 66 69c43 0 64 -33 64 -69z" />
    <glyph glyph-name="Scedilla" unicode="&#x15e;" horiz-adv-x="532" 
d="M478 191c0 -130 -96 -201 -238 -201c-56 0 -127 7 -182 31c5 38 16 78 25 108c51 -22 116 -33 171 -33c65 0 96 30 96 84c0 127 -290 107 -290 309c0 127 104 195 246 195c43 0 97 -4 143 -16c-2 -31 -8 -74 -16 -108c-44 11 -106 18 -149 18c-70 0 -96 -31 -96 -81
c0 -114 290 -105 290 -306zM370 -117c0 -63 -43 -99 -135 -99c-17 0 -49 2 -69 5c-3 21 -4 42 -4 62c20 -4 49 -6 64 -6c39 0 58 9 58 38c0 28 -16 39 -53 39c-11 0 -26 0 -44 -1c2 14 7 36 13 50h58c76 0 112 -32 112 -88z" />
    <glyph glyph-name="gbreve" unicode="&#x11f;" horiz-adv-x="535" 
d="M501 -29c0 -110 -77 -187 -236 -187c-158 0 -210 68 -210 152c0 41 16 68 48 100c-12 21 -24 45 -31 69c7 30 30 93 57 127c-36 26 -59 70 -59 125c0 104 69 175 187 175c26 0 61 -4 86 -10h155c0 -26 -2 -56 -8 -83l-59 -6l-1 -5c13 -18 19 -44 19 -70
c0 -115 -77 -166 -180 -166c-25 0 -51 5 -69 9c-18 -25 -23 -48 -23 -59c0 -22 10 -30 31 -30h143c91 0 150 -31 150 -141zM393 -40c0 40 -13 48 -49 48h-173c-10 -13 -14 -35 -14 -50c0 -58 27 -80 115 -80c76 0 121 22 121 82zM346 363c0 66 -33 89 -84 89
c-56 0 -84 -28 -84 -89c0 -63 30 -89 84 -89c52 0 84 24 84 89zM451 714c-30 -115 -104 -144 -185 -144c-86 0 -153 30 -182 144c26 11 60 19 93 24c11 -56 41 -79 91 -79c49 0 80 21 93 79c34 -5 64 -14 90 -24z" />
    <glyph glyph-name="Gbreve" unicode="&#x11e;" horiz-adv-x="642" 
d="M564 35c-47 -24 -134 -45 -213 -45c-196 0 -296 123 -296 348c0 242 127 346 305 346c64 0 142 -11 191 -32c-2 -33 -11 -78 -20 -114c-42 22 -108 36 -164 36c-110 0 -178 -48 -178 -241c0 -170 60 -233 164 -233c27 0 67 4 88 12v138h-102c-6 32 -10 72 -10 107h235
v-322zM504 866c-30 -115 -104 -144 -185 -144c-86 0 -153 30 -182 144c26 11 60 19 93 24c11 -56 41 -79 91 -79c49 0 80 21 93 79c34 -5 64 -14 90 -24z" />
    </font>
</defs>
</svg>
